The Tick - TAS UNCUT 1994-1996 DVDrip XviD

DOWNLOAD TORRENT DOWNLOAD DOWNLOAD ANONYMOUS

Posted by NmelessOne •77 on June 12, 2017 in Anime » Cartoons , verified torrent

Size: 7.58 GB , Seeds: 1 , Peers: 3 ( Updated August 15, 2017 - Refresh )

* Download via Magnet Link , * To download files you need a Bittorrent Client , * How to download torrents from Bit Torrent Scene?

Scrape History ( seeds + peers )

Internal Files

The Tick - TAS UNCUT 1994-1996 DVDrip XviD
1x01 The Tick vs. The Idea Men.avi   201.91 MB
1x02 The Tick vs. Chairface Chippendale.avi   179.43 MB
1x03 The Tick vs. Dinosaur Neil.avi   218.9 MB
1x04 The Tick vs. Mr. Mental.avi   169.97 MB
1x05 The Tick vs. The Breadmaster.avi   205.1 MB
1x06 The Tick vs. El Seed.avi   223.34 MB
1x07 The Tick vs. The Tick.avi   231.76 MB
1x08 The Tick vs. The Uncommon Cold.avi   242.09 MB
1x09 The Tick vs. Brainchild.avi   226.28 MB
1x10 The Tick vs. Pineapple Pokopo.avi   245.09 MB
1x11 The Tick vs. the Mole-Men.avi   217.86 MB
1x12 The Tick vs. The Proto-Clown.avi   258.86 MB
1x13 The Tick vs. Arthur's Bank Account.avi   234.01 MB
2x01 The Little Wooden Boy and the Belly of Love.avi   224.39 MB
2x02 Alone Together.avi   190.89 MB
2x03 Armless but Not Harmless.avi   234.31 MB
2x04 Coach Fussell's Lament.avi   225.7 MB
2x05 Leonardo da Vinci and His Fightin' Genius Time Commandos!.avi   219.89 MB
2x06 Bloomsday.avi   228.7 MB
2x07 Evil Sits Down for a Moment.avi   217.98 MB
2x08 Heroes.avi   212.44 MB
2x09 Ants in Pants!.avi   179.82 MB
2x10 The Tick Loves Santa!.avi   269.26 MB
2x11 Tick vs. the Big Nothing.avi   205 MB
2x12 Tick vs. Reno, Nevada.avi   224.14 MB
2x13 Grandpa Wore Tights.avi   205.58 MB
3x01 That Mustache Feeling.avi   180.4 MB
3x02 Tick vs. Dot and Neil's Wedding.avi   188.88 MB
3x03 Sidekicks Don't Kiss.avi   278.35 MB
3x04 Tick vs. Arthur.avi   177.26 MB
3x05 Devil in Diapers.avi   211.39 MB
3x06 Tick vs. Filth.avi   188.9 MB
3x07 Tick vs. Europe.avi   201.53 MB
3x08 Tick vs. Science.avi   213.4 MB
3x09 Tick vs. Prehistory.avi   220.11 MB
3x10 Tick vs. Education.avi   211.4 MB

Hash Code

6872f5db8a23504b39c7ad0a6468daf6c1d2e9ba

Description

All 36 episodes. (Complete Series)

---------------
* General *
---------------

Complete name : 1x01 The Tick vs. The Idea Men.avi
Format : AVI
Format/Info : Audio Video Interleave
File size : 202 MiB
Duration : 20mn 13s
Overall bit rate : 1 396 Kbps
Writing application : Lavf55.43.100

-------------
* Video *
-------------

ID : 0
Format : xvid
Codec ID : xvid
Duration : 20mn 13s
Bit rate : 1 191 Kbps
Width : 702 pixels
Height : 576 pixels
Display aspect ratio : 1.299
Frame rate : 25.000 fps
Bits/(Pixel*Frame) : 0.118
Stream size : 172 MiB (85%)

-------------
* Audio *
-------------

ID : 1
Format : MPEG Audio
Format version : Version 1
Format profile : Layer 3
Mode : Joint stereo
Mode extension : MS Stereo
Codec ID : 55
Codec ID/Hint : MP3
Duration : 20mn 13s
Bit rate mode : Constant
Bit rate : 192 Kbps
Channel(s) : 2 channels
Sampling rate : 48.0 KHz
Compression mode : Lossy
Stream size : 27.8 MiB (14%)
Alignment : Aligned on interleaves
Interleave, duration : 24 ms (0.60 video frame)
Interleave, preload duration : 24 ms
Title : Stereo
Writing library : LAME3.99.5

Thanks goes to the original encoder/provider, pBSNwXXQ.

Enjoy & Please Seed!

Trackers

Refresh Leechers : Updated August 15, 2017

1. udp://tracker.opentrackr.org:1337/announce

2. udp://9.rarbg.me:2710/announce

3. http://torrent.gresille.org/announce

4. http://tracker.aletorrenty.pl:2710/announce

5. udp://tracker.leechers-paradise.org:6969/announce

6. udp://eddie4.nl:6969/announce

7. udp://shadowshq.yi.org:6969/announce

8. udp://tracker.coppersurfer.tk:6969

Comments

You must log in to add a comment.

Embed Code

Sharing Widget

Top Anime ( auto generated report )

FILENAME SIZE SEEDS PEERS ADDED UPD
[i] Lupin III - L'elusività della nebbia (2007).H264.Italian.jpn.Ac3.5.1.sub.ita.iCV-MIRCrew 1.32 GB 6 3 5 days 4 days
[i] Lupin III - Un diamante per sempre (2003).H264.Italian.jpn.Ac3.sub.ita.iCV-MIRCrew 1.03 GB 4 1 5 days 4 days