The.Orville.S01E06.iNTERNAL.720p.WEB.x264-BAMBOOZLE

DOWNLOAD TORRENT DOWNLOAD DOWNLOAD ANONYMOUS

Posted on October 13, 2017 in Series » Misc , verified torrent

Size: 1.04 GB , Seeds: 5 , Peers: 4 ( Updated October 19, 2017 - Refresh )

* Download via Magnet Link , * To download files you need a Bittorrent Client , * How to download torrents from Bit Torrent Scene?

Scrape History ( seeds + peers )

Internal Files

The.Orville.S01E06.iNTERNAL.720p.WEB.x264-BAMBOOZLE
the.orville.s01e06.internal.720p.web.x264-bamboozle.mkv   1.04 GB
the.orville.s01e06.internal.720p.web.x264-bamboozle.nfo   62 Byte

Hash Code

ccb86d70b64fbfd14a2ca89db7c39153a1bc96b9

Description

The.Orville.S01E06.iNTERNAL.720p.WEB.x264-BAMBOOZLE

SCREENSHOT

Complete name : the.orville.s01e06.internal.720p.web.x264-bamboozle.mkv
Format : Matroska
Format version : Version 4 / Version 2
File size : 1.04 GiB
Duration : 43 min 58 s
Overall bit rate : 3 371 kb/s
Encoded date : UTC 2017-10-13 04:46:56
Writing application : mkvmerge v8.8.0 ('Wind at my back') 64bit
Writing library : libebml v1.3.3 + libmatroska v1.4.4 / Lavf57.72.101

Video
ID : 1
Format : AVC
Format/Info : Advanced Video Codec
Format profile : [email protected]
Format settings, CABAC : Yes
Format settings, ReFrames : 2 frames
Codec ID : V_MPEG4/ISO/AVC
Duration : 43 min 58 s
Bit rate : 3 360 kb/s
Width : 1 280 pixels
Height : 720 pixels
Display aspect ratio : 16:9
Frame rate mode : Constant
Frame rate : 23.976 (24000/1001) FPS
Original frame rate : 24.000 FPS
Color space : YUV
Chroma subsampling : 4:2:0
Bit depth : 8 bits
Scan type : Progressive
Bits/(Pixel*Frame) : 0.152
Stream size : 1 020 MiB (96%)
Writing library : x264 core 148 r2579M 73ae2d1
Encoding settings : cabac=1 / ref=2 / deblock=1:0:0 / analyse=0x3:0x113 / me=hex / subme=2 / psy=1 / psy_rd=1.00:0.00 / mixed_ref=0 / me_range=16 / chroma_me=1 / trellis=0 / 8x8dct=1 / cqm=0 / deadzone=21,11 / fast_pskip=1 / chroma_qp_offset=0 / threads=4 / lookahead_threads=1 / sliced_threads=0 / nr=250 / decimate=1 / interlaced=0 / bluray_compat=0 / stitchable=1 / constrained_intra=0 / bframes=0 / weightp=1 / keyint=250 / keyint_min=24 / scenecut=40 / intra_refresh=0 / rc_lookahead=10 / rc=2pass / mbtree=1 / bitrate=3360 / ratetol=1.0 / qcomp=0.60 / qpmin=5 / qpmax=69 / qpstep=4 / cplxblur=20.0 / qblur=0.5 / ip_ratio=1.40 / aq=1:1.00
Default : Yes
Forced : No

Audio
ID : 2
Format : AAC
Format/Info : Advanced Audio Codec
Format profile : HE-AAC / LC
Codec ID : A_AAC
Duration : 43 min 58 s
Bit rate : 127 kb/s
Channel(s) : 2 channels
Channel positions : Front: L R
Sampling rate : 48.0 kHz / 24.0 kHz
Frame rate : 23.438 FPS (1024 spf)
Compression mode : Lossy
Stream size : 39.9 MiB (4%)
Default : Yes
Forced : No

SCREENSHOT

SCREENSHOT

Click To View Screenshot

Click To View Screenshot

Click To View Screenshot

Torrent location

https://www.1337x.to/torrent/2513780/The-Orville-S01E06-iNTERNAL-720p-WEB-x264-BAMBOOZLE/

Trackers

Refresh Leechers : Updated October 19, 2017

1. http://bigfoot1942.sektori.org:6969/announce

2. http://tracker2.wasabii.com.tw:6969/announce

3. http://tracker.opentrackr.org/announce

4. http://announce.torrentsmd.com:6969/announce

5. http://tracker.trackerfix.com/announce

6. http://tracker.opentrackr.org/announce

7. udp://explodie.org:6969/announce

8. udp://mgtracker.org:6969/announce

9. udp://asnet.pw:2710/announce

10. udp://tracker.mgtracker.org:2710/announce

11. udp://tracker4.piratux.com:6969/announce

12. udp://tracker.trackerfix.com:80/announce

13. udp://tracker.pomf.se:80/announce

14. udp://tracker.x4w.co:6969/announce

15. udp://castradio.net:6969/announce

16. udp://ipv4.tracker.harry.lu:80/announce

17. udp://tracker.mg64.net:6881/announce

18. udp://tracker.sktorrent.net:6969/announce

19. udp://tracker.blackunicorn.xyz:6969/announce

20. udp://tracker.internetwarriors.net:1337/announce

21. udp://public.popcorn-tracker.org:6969/announce

22. udp://glotorrents.pw:6969/announce

23. udp://tracker.vanitycore.co:6969/announce

24. udp://tracker.trackerfix.com:80/announce

25. udp://p4p.arenabg.ch:1337/announce

26. udp://9.rarbg.me:2710/announce

27. udp://tracker.zer0day.to:1337/announce

28. udp://tracker.opentrackr.org:1337/announce

29. udp://tracker.pirateparty.gr:6969/announce

30. udp://9.rarbg.to:2710/announce

31. udp://eddie4.nl:6969/announce

32. udp://tracker.coppersurfer.tk:6969/announce

33. udp://tracker.leechers-paradise.org:6969/announce

34. udp://tracker.zer0day.to:1337/announce

35. udp://public.popcorn-tracker.org:6969/announce

36. udp://tracker.grepler.com:6969/announce

37. udp://ipv4.tracker.harry.lu:80/announce

38. udp://9.rarbg.to:2710/announce

39. udp://9.rarbg.me:2710/announce

40. udp://p4p.arenabg.com:1337/announce

41. udp://p4p.arenabg.ch:1337/announce

42. udp://tracker.opentrackr.org:1337/announce

43. udp://tracker.leechers-paradise.org:6969/announce

44. udp://eddie4.nl:6969/announce

45. udp://shadowshq.yi.org:6969/announce

46. udp://tracker.pirateparty.gr:6969/announce

47. udp://tracker.coppersurfer.tk:6969/announce

Comments

You must log in to add a comment.

Embed Code

Sharing Widget

Top Series ( auto generated report )

FILENAME SIZE SEEDS PEERS ADDED UPD
[i] Arrow.S06E02.HDTV.x264-LOL[eztv].mkv 255.41 MB 4620 1086 2 days 1 day
[i] Marvels.Inhumans.S01E05.HDTV.x264-KILLERS[eztv].mkv 350.04 MB 4471 864 2 days 1 day
[i] Supergirl.S03E02.HDTV.x264-LOL[eztv].mkv 284.54 MB 3891 649 5 days 4 days
[i] Gotham.S04E05.HDTV.x264-LOL[eztv].mkv 213.41 MB 3886 819 2 days 1 day
[i] DCs.Legends.of.Tomorrow.S03E02.HDTV.x264-LOL[eztv].mkv 349.66 MB 3410 845 4 days 3 days
[i] The.Flash.2014.S04E02.HDTV.x264-LOL[eztv] 303.79 MB 3039 834 5 days 4 days
[i] The.Gifted.S01E03.HDTV.x264-KILLERS[eztv].mkv 281.79 MB 3002 731 5 days 4 days
[i] The.Big.Bang.Theory.S11E04.HDTV.x264-LOL[eztv].mkv
Series - Misc , Quality: Audio 9/10 - Video 9/10
135.14 MB 3937 644 6 days 37 min
[i] Supernatural.S13E02.HDTV.x264-LOL[ettv] 286.5 MB 2451 471 3 days 2 days
[i] Scorpion.S04E04.HDTV.x264-SVA[eztv].mkv 282.66 MB 2336 354 5 days 4 days