The.Meyerowitz.Stories.New.and.Selected.2017.HDRip.XviD.AC3-EVO

DOWNLOAD TORRENT DOWNLOAD DOWNLOAD ANONYMOUS

Posted on October 13, 2017 in Movies » Misc , verified torrent

Size: 1.4 GB , Seeds: 1 , Peers: 2 ( Updated October 19, 2017 - Refresh )

* Download via Magnet Link , * To download files you need a Bittorrent Client , * How to download torrents from Bit Torrent Scene?

Scrape History ( seeds + peers )

Internal Files

The.Meyerowitz.Stories.New.and.Selected.2017.HDRip.XviD.AC3-EVO
sample.avi   29.32 MB
The.Meyerowitz.Stories.New.and.Selected.2017.HDRip.XviD.AC3-EVO.avi   1.36 GB
The.Meyerowitz.Stories.New.and.Selected.2017.HDRip.XviD.AC3-EVO.nfo   651 Byte

Hash Code

8fd88eec31193f30e3d87bd333f5b6d6f13a4284

Description

The.Meyerowitz.Stories.New.and.Selected.2017.HDRip.XviD.AC3-EVO

ImDb: http://www.imdb.com/title/tt5536736

SCREENSHOT

Complete name : The.Meyerowitz.Stories.New.and.Selected.2017.HDRip.XviD.AC3-EVO.avi
Format : AVI
Format/Info : Audio Video Interleave
File size : 1.36 GiB
Duration : 1 h 52 min
Overall bit rate : 1 733 kb/s
Writing library : VirtualDub build 32593/release

Video
ID : 0
Format : MPEG-4 Visual
Format profile : Advanced [email protected]
Format settings, BVOP : 2
Format settings, QPel : No
Format settings, GMC : No warppoints
Format settings, Matrix : Default (H.263)
Muxing mode : Packed bitstream
Codec ID : XVID
Codec ID/Hint : XviD
Duration : 1 h 52 min
Bit rate : 1 340 kb/s
Width : 720 pixels
Height : 384 pixels
Display aspect ratio : 1.85:1
Frame rate : 23.976 (24000/1001) FPS
Color space : YUV
Chroma subsampling : 4:2:0
Bit depth : 8 bits
Scan type : Progressive
Compression mode : Lossy
Bits/(Pixel*Frame) : 0.202
Stream size : 1.05 GiB (77%)
Writing library : XviD 66

Audio
ID : 1
Format : AC-3
Format/Info : Audio Coding 3
Format settings, Endianness : Big
Codec ID : 2000
Duration : 1 h 52 min
Bit rate mode : Constant
Bit rate : 384 kb/s
Channel(s) : 6 channels
Channel positions : Front: L C R, Side: L R, LFE
Sampling rate : 48.0 kHz
Frame rate : 31.250 FPS (1536 spf)
Bit depth : 16 bits
Compression mode : Lossy
Stream size : 309 MiB (22%)
Alignment : Aligned on interleaves
Interleave, duration : 42 ms (1.00 video frame)
Interleave, preload duration : 512 ms
Service kind : Complete Main

SCREENSHOT

SCREENSHOT

Click To View Screenshot

Click To View Screenshot

Click To View Screenshot

Torrent location

https://www.1337x.to/torrent/2514595/The-Meyerowitz-Stories-New-and-Selected-2017-HDRip-XviD-AC3-EVO/

Trackers

Refresh Leechers : Updated October 19, 2017

1. http://bigfoot1942.sektori.org:6969/announce

2. http://tracker2.wasabii.com.tw:6969/announce

3. http://tracker.opentrackr.org/announce

4. http://announce.torrentsmd.com:6969/announce

5. http://tracker.trackerfix.com/announce

6. http://tracker.opentrackr.org/announce

7. udp://explodie.org:6969/announce

8. udp://mgtracker.org:6969/announce

9. udp://asnet.pw:2710/announce

10. udp://tracker.mgtracker.org:2710/announce

11. udp://tracker4.piratux.com:6969/announce

12. udp://tracker.trackerfix.com:80/announce

13. udp://tracker.pomf.se:80/announce

14. udp://tracker.x4w.co:6969/announce

15. udp://castradio.net:6969/announce

16. udp://ipv4.tracker.harry.lu:80/announce

17. udp://tracker.mg64.net:6881/announce

18. udp://tracker.sktorrent.net:6969/announce

19. udp://tracker.blackunicorn.xyz:6969/announce

20. udp://tracker.internetwarriors.net:1337/announce

21. udp://public.popcorn-tracker.org:6969/announce

22. udp://glotorrents.pw:6969/announce

23. udp://tracker.vanitycore.co:6969/announce

24. udp://tracker.trackerfix.com:80/announce

25. udp://p4p.arenabg.ch:1337/announce

26. udp://9.rarbg.me:2710/announce

27. udp://tracker.zer0day.to:1337/announce

28. udp://tracker.opentrackr.org:1337/announce

29. udp://tracker.pirateparty.gr:6969/announce

30. udp://9.rarbg.to:2710/announce

31. udp://eddie4.nl:6969/announce

32. udp://tracker.coppersurfer.tk:6969/announce

33. udp://tracker.leechers-paradise.org:6969/announce

34. udp://tracker.zer0day.to:1337/announce

35. udp://public.popcorn-tracker.org:6969/announce

36. udp://tracker.grepler.com:6969/announce

37. udp://ipv4.tracker.harry.lu:80/announce

38. udp://9.rarbg.to:2710/announce

39. udp://9.rarbg.me:2710/announce

40. udp://p4p.arenabg.com:1337/announce

41. udp://p4p.arenabg.ch:1337/announce

42. udp://tracker.opentrackr.org:1337/announce

43. udp://tracker.leechers-paradise.org:6969/announce

44. udp://eddie4.nl:6969/announce

45. udp://shadowshq.yi.org:6969/announce

46. udp://tracker.pirateparty.gr:6969/announce

47. udp://tracker.coppersurfer.tk:6969/announce

Comments

You must log in to add a comment.

Embed Code

Sharing Widget

Related torrents

FILENAME SIZE SEEDS PEERS ADDED UPD
[i] The Meyerowitz Stories New and Selected 2017 WEBRip x264-VYTO [P2PDL]
posted by VYTO in Movies - Comedy
443.66 MB 30 3 6 days 18 hours
[i] The Meyerowitz Stories New and Selected 2017 720p WEB-DL DD 5 1 x264
posted by moviefreak in Movies - Comedy
1.09 GB 24 5 1 week 1 day
[i] The Meyerowitz Stories New and Selected 2017 HDRip XviD AC3-EVO
posted by hotpena in Movies - Comedy
1.39 GB 15 3 1 week 1 day

Top Movies ( auto generated report )

FILENAME SIZE SEEDS PEERS ADDED UPD
[i] A Family Man (2016) [720p] [YTS AG] 807.25 MB 1747 564 4 days 16 hours
[i] A Family Man (2016) [1080p] [YTS AG] 1.68 GB 1337 386 4 days 16 hours
[i] Pressure (2015) [720p] [YTS AG] 678.41 MB 1019 351 4 days 1 day
[i] Viceroy's House (2017) [720p] [YTS AG] 782.15 MB 929 332 4 days 1 day
[i] Annabelle 2 Creation 2017 BRScreener Spanish [Zonatorrent org] avi 1.81 GB 905 141 3 days 22 hours
[i] Viceroy's House (2017) [1080p] [YTS AG] 1.62 GB 854 321 4 days 2 days
[i] Hâmonî (2015) [720p] [YTS AG] 884.87 MB 770 277 5 days 2 days
[i] OtherLife 2017 HDRip XViD AC3-juggs 1.24 GB 750 416 4 days 2 days
[i] Pressure (2015) [1080p] [YTS AG] 1.4 GB 746 185 3 days 22 hours
[i] Open Water 3 Cage Dive (2017) [720p] [YTS AG] 589.39 MB 753 785 22 hours 20 hours