Your IP Address is . Location is Your ISP and Government can track your torrent activity! Hide your IP with a VPN!

The Lego Ninjago Movie 2017 1080p HC HDRip X264 AC3

DOWNLOAD TORRENT DOWNLOAD DOWNLOAD ANONYMOUS

Posted by moviefreak •552 on October 13, 2017 in Movies » Animation , verified torrent

Size: 1.1 GB , Seeds: 10 , Peers: 5 ( Updated November 16, 2017 - Refresh )

* Download via Magnet Link , * To download files you need a Bittorrent Client , * How to download torrents from Bit Torrent Scene?

Scrape History ( seeds + peers )

Internal Files

The Lego Ninjago Movie 2017 1080p HC HDRip X264 AC3
The Lego Ninjago Movie 2017 1080p HC HDRip X264 AC3.mkv   1.1 GB

Hash Code

075cafea53d29d9c804840f166e5d1fed229f74c

Description

SCREENSHOT

General
Format : Matroska
Format version : Version 4 / Version 2
File size : 1.10 GiB
Duration : 1 h 37 min
Overall bit rate : 1 624 kb/s

Video
ID : 1
Format : AVC
Format/Info : Advanced Video Codec
Format profile : High@L4
Format settings : CABAC / 4 Ref Frames
Format settings, CABAC : Yes
Format settings, RefFrames : 4 frames
Codec ID : V_MPEG4/ISO/AVC
Duration : 1 h 37 min
Bit rate : 1 500 kb/s
Width : 1 920 pixels
Height : 800 pixels
Display aspect ratio : 2.40:1
Frame rate mode : Constant
Frame rate : 25.000 FPS
Color space : YUV
Chroma subsampling : 4:2:0
Bit depth : 8 bits
Scan type : Progressive
Bits/(Pixel*Frame) : 0.039
Stream size : 1.01 GiB (92%)
Writing library : x264 core 148 r2643 5c65704
Default : Yes
Forced : No

Audio
ID : 2
Format : AC-3
Format/Info : Audio Coding 3
Format settings, Endianness : Big
Codec ID : A_AC3
Duration : 1 h 37 min
Bit rate mode : Constant
Bit rate : 128 kb/s
Channel(s) : 2 channels
Channel positions : Front: L R
Sampling rate : 44.1 kHz
Frame rate : 28.711 FPS (1536 SPF)
Bit depth : 16 bits
Compression mode : Lossy
Stream size : 89.0 MiB (8%)
Service kind : Complete Main
Default : Yes
Forced : No


SCREENSHOT
SCREENSHOT
SCREENSHOT
SCREENSHOT
SCREENSHOT

Trackers

Refresh Leechers : Updated November 16, 2017

1. http://ipv4.tracker.harry.lu/announce

2. http://ipv4.tracker.harry.lu:80/announce

3. udp://tracker.pirateparty.gr:6969/announce

4. http://tracker.devil-torrents.pl:80/announce

5. http://tracker.devil-torrents.pl/announce

6. http://open.kickasstracker.com/announce

7. https://open.kickasstracker.com:443/announce

8. udp://p4p.arenabg.com:1337/announce

9. udp://9.rarbg.me:2770/announce

10. udp://9.rarbg.com:2740/announce

11. udp://9.rarbg.to:2750/announce

12. udp://tracker.coppersurfer.tk:6969/announce

13. udp://tracker.leechers-paradise.org:6969/announce

14. udp://tracker.zer0day.to:1337/announce

15. http://tracker.devil-torrents.pl/announce

Comments

You must log in to add a comment.

Embed Code

Sharing Widget

Related torrents

FILENAME SIZE SEEDS PEERS ADDED UPD
[i] The LEGO Ninjago Movie (2017) [720p] [YTS AG] 747.68 MB 1027 160 1 week 1 day
[i] The LEGO Ninjago Movie (2017) [1080p] [YTS AG] 1.54 GB 830 156 1 week 1 day
[i] The.LEGO.Ninjago.Movie.2017.1080p.BluRay.H264.AAC-RARBG 1.95 GB 206 63 1 week 2 days
[i] The.Lego.Ninjago.Movie.2017.KORSUB.HDRip.x264-STUTTERSHIT[rarbg] 856.15 MB 49 8 2 months 2 days
[i] The.LEGO.Ninjago.Movie.2017.RERIP.1080p.BluRay.x264-GECKOS[EtHD] 7.67 GB 28 29 6 days 11 hours
[i] The.Lego.Ninjago.Movie.2017.DVDRip.XviD.AC3-EVO[EtMovies] 1.26 GB 15 8 1 week 4 days
[i] The Lego Ninjago Movie 2017 DVDRip XviD AC3
posted by LifeLongg in Movies - Animation
847.53 MB 13 9 5 days 4 days
[i] The LEGO Ninjago Movie 2017 720p BluRay x264-NeZu
posted by NeZu2k16 in Movies - Animation
873.99 MB 13 9 1 week 1 day
[i] The.LEGO.Ninjago.Movie.2017.1080p.BluRay.x264-GECKOS[EtHD] 5.55 GB 13 19 1 week 2 days
[i] The.LEGO.Ninjago.Movie.2017.BDRip.x264-GECKOS[EtMovies] 754 MB 11 8 1 week 3 days

Top Movies ( auto generated report )

FILENAME SIZE SEEDS PEERS ADDED UPD
[i] The Mountain Between Us (2017) [720p] [YTS AG] 816.25 MB 5646 2920 4 days 1 day
[i] l-experience-interdite-flatliners-french-dvdrip-2017.torrent 700.65 MB 5171 851 2 days 1 day
[i] The Mountain Between Us (2017) [1080p] [YTS AG] 1.7 GB 3703 1416 4 days 23 hours
[i] Flatliners (2017) [720p] [YTS AG] 807.91 MB 2908 1454 4 days 12 hours
[i] Flatliners (2017) [1080p] [YTS AG] 1.67 GB 1938 794 4 days 16 hours
[i] Beyond.Skyline.2017.WEB-DL.x264-FGT [rarbg] 929.15 MB 1416 442 2 days 14 hours
[i] The.Snowman.2017.HC.WEBRip.x264-STUTTERSHIT[rarbg] 1.02 GB 623 128 6 days 11 hours
[i] M F A (2017) [720p] [YTS AG] 672.56 MB 1648 773 2 days 1 day
[i] Stronger (2017) [720p] [YTS AG] 865.1 MB 1528 329 1 week 1 day
[i] Victoria & Abdul (2017) [720p] [YTS AG] 812.01 MB 1305 334 1 week 1 day