The Lego Ninjago Movie 2017 1080p HC HDRip X264 AC3

Posted by moviefreak •1842 on October 13, 2017 in Movies » Animation , verified torrent

Size: 1.1 GB , Seeds: 6 , Peers: 4 ( Updated March 31, 2018 - Refresh )

* Download via Magnet Link , * To download files you need a Bittorrent Client , * How to download torrents from Bit Torrent Scene?

Scrape History ( seeds + peers )

Internal Files

The Lego Ninjago Movie 2017 1080p HC HDRip X264 AC3
The Lego Ninjago Movie 2017 1080p HC HDRip X264 AC3.mkv   1.1 GB

Hash Code

075cafea53d29d9c804840f166e5d1fed229f74c

Description

SCREENSHOT

General
Format : Matroska
Format version : Version 4 / Version 2
File size : 1.10 GiB
Duration : 1 h 37 min
Overall bit rate : 1 624 kb/s

Video
ID : 1
Format : AVC
Format/Info : Advanced Video Codec
Format profile : High@L4
Format settings : CABAC / 4 Ref Frames
Format settings, CABAC : Yes
Format settings, RefFrames : 4 frames
Codec ID : V_MPEG4/ISO/AVC
Duration : 1 h 37 min
Bit rate : 1 500 kb/s
Width : 1 920 pixels
Height : 800 pixels
Display aspect ratio : 2.40:1
Frame rate mode : Constant
Frame rate : 25.000 FPS
Color space : YUV
Chroma subsampling : 4:2:0
Bit depth : 8 bits
Scan type : Progressive
Bits/(Pixel*Frame) : 0.039
Stream size : 1.01 GiB (92%)
Writing library : x264 core 148 r2643 5c65704
Default : Yes
Forced : No

Audio
ID : 2
Format : AC-3
Format/Info : Audio Coding 3
Format settings, Endianness : Big
Codec ID : A_AC3
Duration : 1 h 37 min
Bit rate mode : Constant
Bit rate : 128 kb/s
Channel(s) : 2 channels
Channel positions : Front: L R
Sampling rate : 44.1 kHz
Frame rate : 28.711 FPS (1536 SPF)
Bit depth : 16 bits
Compression mode : Lossy
Stream size : 89.0 MiB (8%)
Service kind : Complete Main
Default : Yes
Forced : No


SCREENSHOT
SCREENSHOT
SCREENSHOT
SCREENSHOT
SCREENSHOT

Trackers

Refresh Leechers : Updated March 31, 2018

1. http://ipv4.tracker.harry.lu/announce

2. http://ipv4.tracker.harry.lu:80/announce

3. udp://tracker.pirateparty.gr:6969/announce

4. http://tracker.devil-torrents.pl:80/announce

5. http://tracker.devil-torrents.pl/announce

6. http://open.kickasstracker.com/announce

7. https://open.kickasstracker.com:443/announce

8. udp://p4p.arenabg.com:1337/announce

9. udp://9.rarbg.me:2770/announce

10. udp://9.rarbg.com:2740/announce

11. udp://9.rarbg.to:2750/announce

12. udp://tracker.coppersurfer.tk:6969/announce

13. udp://tracker.leechers-paradise.org:6969/announce

14. udp://tracker.zer0day.to:1337/announce

15. http://tracker.devil-torrents.pl/announce

Comments

You must log in to add a comment.

Embed Code

Sharing Widget

Related torrents

FILENAME SIZE SEEDS PEERS ADDED UPD
[i] The LEGO Ninjago Movie (2017) [720p] [YTS AG] 747.68 MB 150 12 7 months 1 month
[i] The LEGO Ninjago Movie (2017) [1080p] [YTS AG] 1.54 GB 129 16 7 months 1 month
[i] The.LEGO.Ninjago.Movie.2017.1080p.BluRay.H264.AAC-RARBG 1.95 GB 61 14 7 months 1 month
[i] The LEGO Ninjago Movie (2017) [3D] [YTS AG] 1.55 GB 21 10 5 months 1 week
[i] The Lego Ninjago - Movie (2017).720p.H264.italian.English.Ac3-5.1.sub.ita.eng.MIRCrew
posted by robbyrs3 in Movies - Animation
1.9 GB 19 9 2 months 1 week
[i] The.Lego.Ninjago.Movie.2017.KORSUB.HDRip.x264-STUTTERSHIT[rarbg] 856.15 MB 14 3 9 months 3 months
[i] The.Lego.Ninjago.Movie.2017.KORSUB.HDRip.XviD.MP3-STUTTERSHIT[rarbg] 1.16 GB 11 4 9 months 3 months
[i] The Lego Ninjago Movie 2017 10bit hevc-d3g.[N1C] 2.18 GB 8 5 4 months 4 weeks
[i] The.LEGO.Ninjago.Movie.2017.RERIP.1080p.BluRay.x264-GECKOS[EtHD] 7.67 GB 8 5 7 months 1 month
[i] The Lego Ninjago Movie 2017 iTALiAN AC3 BDRip XViD-Bymonello78 avi
posted by monello78 in Movies - Animation
1.52 GB 7 3 5 months 6 days

Top Movies ( auto generated report )

FILENAME SIZE SEEDS PEERS ADDED UPD
[i] Tango One (2018) [BluRay] [720p] [YTS AM] 967.28 MB 1073 689 2 days 1 day
[i] Jurassic World Fallen Kingdom 2018 NEW HD-TS XViD AC3 ETRG 1.35 GB 1065 832 2 days 1 day
[i] downloadhub in Raazi (2018) Hindi 720p HDRip x264 AAC ESubs - Downloadhub 1.05 GB 936 682 4 days 3 days
[i] Sara's Notebook (2018) [BluRay] [720p] [YTS AM] 996.61 MB 772 332 2 days 1 day
[i] The Devil's Doorway (2018) [WEBRip] [720p] [YTS AM] 638.65 MB 701 200 2 days 1 day
[i] Hotel Transylvania 3 Summer Vacation 2018 720p HDCAM X264-24HD [MOVCR] 770.09 MB 694 237 4 days 3 days
[i] The Honey Killer (2018) [WEBRip] [720p] [YTS AM] 680.9 MB 676 167 2 days 1 day
[i] Tango One (2018) [BluRay] [1080p] [YTS AM] 1.81 GB 558 234 2 days 1 day
[i] Sara's Notebook (2018) [BluRay] [1080p] [YTS AM] 1.86 GB 530 191 2 days 1 day
[i] Billionaire Boys Club 2018 HDRip XViD-ETRG 708.01 MB 509 348 3 days 2 days