The.Death.of.Louis.XIV.2016.iNTERNAL.BDRip.x264-LiBRARiANS

DOWNLOAD TORRENT DOWNLOAD DOWNLOAD ANONYMOUS

Posted on November 14, 2017 in Movies » Misc , verified torrent

Size: 345.6 MB , Seeds: 1 , Peers: 1 ( Updated November 15, 2017 - Refresh )

* Download via Magnet Link , * To download files you need a Bittorrent Client , * How to download torrents from Bit Torrent Scene?

Scrape History ( seeds + peers )

Internal Files

The.Death.of.Louis.XIV.2016.iNTERNAL.BDRip.x264-LiBRARiANS
The.Death.of.Louis.XIV.2016.iNTERNAL.BDRip.x264-LiBRARiANS.mkv   338.38 MB
lib-the.death.of.louis.xiv.2016.internal.bdrip.x264.nfo   700 Byte

Hash Code

5dd556672fc1019e57e3eee07b0e2db64f05b524

Description

The.Death.of.Louis.XIV.2016.iNTERNAL.BDRip.x264-LiBRARiANS

ImDb: http://www.imdb.com/title/tt5129510

SCREENSHOT

Complete name : The.Death.of.Louis.XIV.2016.iNTERNAL.BDRip.x264-LiBRARiANS.mkv
Format : Matroska
Format version : Version 4 / Version 2
File size : 338 MiB
Duration : 1 h 56 min
Overall bit rate : 408 kb/s
Encoded date : UTC 2017-11-11 12:24:29
Writing application : mkvmerge v17.0.0 ('Be Ur Friend') 64-bit
Writing library : libebml v1.3.5 + libmatroska v1.4.8

Video
ID : 1
Format : AVC
Format/Info : Advanced Video Codec
Format profile : [email protected]
Format settings, CABAC : Yes
Format settings, ReFrames : 5 frames
Codec ID : V_MPEG4/ISO/AVC
Duration : 1 h 56 min
Bit rate : 268 kb/s
Width : 720 pixels
Height : 302 pixels
Display aspect ratio : 2.40:1
Frame rate mode : Constant
Frame rate : 23.976 (24000/1001) FPS
Color space : YUV
Chroma subsampling : 4:2:0
Bit depth : 8 bits
Scan type : Progressive
Bits/(Pixel*Frame) : 0.051
Stream size : 223 MiB (66%)
Writing library : x264 core 152 r2851 ba24899
Encoding settings : cabac=1 / ref=5 / deblock=1:-3:-3 / analyse=0x3:0x113 / me=umh / subme=8 / psy=1 / psy_rd=1.00:0.25 / mixed_ref=1 / me_range=24 / chroma_me=1 / trellis=2 / 8x8dct=1 / cqm=0 / deadzone=21,11 / fast_pskip=1 / chroma_qp_offset=-4 / threads=9 / lookahead_threads=1 / sliced_threads=0 / nr=0 / decimate=1 / interlaced=0 / bluray_compat=0 / constrained_intra=0 / bframes=3 / b_pyramid=2 / b_adapt=1 / b_bias=0 / direct=3 / weightb=1 / open_gop=0 / weightp=2 / keyint=240 / keyint_min=24 / scenecut=40 / intra_refresh=0 / rc_lookahead=50 / rc=crf / mbtree=1 / crf=19.0 / qcomp=0.60 / qpmin=0 / qpmax=69 / qpstep=4 / ip_ratio=1.40 / aq=1:0.75
Default : Yes
Forced : No
Color range : Limited
Matrix coefficients : BT.709

Audio
ID : 2
Format : AAC
Format/Info : Advanced Audio Codec
Format profile : LC
Codec ID : A_AAC
Duration : 1 h 56 min
Bit rate : 137 kb/s
Channel(s) : 2 channels
Channel positions : Front: L R
Sampling rate : 48.0 kHz
Frame rate : 46.875 FPS (1024 spf)
Compression mode : Lossy
Delay relative to video : 9 ms
Stream size : 114 MiB (34%)
Language : French
Default : Yes
Forced : No

Text
ID : 3
Format : UTF-8
Codec ID : S_TEXT/UTF8
Codec ID/Info : UTF-8 Plain Text
Duration : 1 h 51 min
Bit rate : 20 b/s
Count of elements : 717
Stream size : 17.1 KiB (0%)
Language : English
Default : Yes
Forced : No

Menu
00:00:00.000 : en:00:00:00.000
00:06:22.173 : en:00:06:22.173
00:11:56.466 : en:00:11:56.466
00:18:01.580 : en:00:18:01.580
00:22:56.625 : en:00:22:56.625
00:30:13.061 : en:00:30:13.061
00:36:07.582 : en:00:36:07.582
00:43:54.632 : en:00:43:54.632
00:49:56.035 : en:00:49:56.035
00:55:36.208 : en:00:55:36.208
00:59:25.437 : en:00:59:25.437
01:06:10.592 : en:01:06:10.592
01:09:23.826 : en:01:09:23.826
01:15:13.592 : en:01:15:13.592
01:20:25.904 : en:01:20:25.904
01:25:55.150 : en:01:25:55.150
01:30:59.996 : en:01:30:59.996
01:35:22.759 : en:01:35:22.759
01:40:58.511 : en:01:40:58.511
01:47:06.462 : en:01:47:06.462
01:52:57.646 : en:01:52:57.646

SCREENSHOT

SCREENSHOT

Click To View Screenshot

Click To View Screenshot

Click To View Screenshot

Torrent location

https://www.1337x.to/torrent/2590663/The-Death-of-Louis-XIV-2016-iNTERNAL-BDRip-x264-LiBRARiANS/

Trackers

Refresh Leechers : Updated November 15, 2017

1. http://bigfoot1942.sektori.org:6969/announce

2. http://tracker2.wasabii.com.tw:6969/announce

3. http://tracker.opentrackr.org/announce

4. http://announce.torrentsmd.com:6969/announce

5. http://tracker.trackerfix.com/announce

6. http://tracker.opentrackr.org/announce

7. udp://explodie.org:6969/announce

8. udp://mgtracker.org:6969/announce

9. udp://asnet.pw:2710/announce

10. udp://tracker.mgtracker.org:2710/announce

11. udp://tracker4.piratux.com:6969/announce

12. udp://tracker.trackerfix.com:80/announce

13. udp://tracker.pomf.se:80/announce

14. udp://tracker.x4w.co:6969/announce

15. udp://castradio.net:6969/announce

16. udp://ipv4.tracker.harry.lu:80/announce

17. udp://tracker.mg64.net:6881/announce

18. udp://tracker.sktorrent.net:6969/announce

19. udp://tracker.blackunicorn.xyz:6969/announce

20. udp://tracker.internetwarriors.net:1337/announce

21. udp://public.popcorn-tracker.org:6969/announce

22. udp://glotorrents.pw:6969/announce

23. udp://tracker.vanitycore.co:6969/announce

24. udp://tracker.trackerfix.com:80/announce

25. udp://p4p.arenabg.ch:1337/announce

26. udp://9.rarbg.me:2710/announce

27. udp://tracker.zer0day.to:1337/announce

28. udp://tracker.opentrackr.org:1337/announce

29. udp://tracker.pirateparty.gr:6969/announce

30. udp://9.rarbg.to:2710/announce

31. udp://eddie4.nl:6969/announce

32. udp://tracker.coppersurfer.tk:6969/announce

33. udp://tracker.leechers-paradise.org:6969/announce

34. udp://tracker.zer0day.to:1337/announce

35. udp://public.popcorn-tracker.org:6969/announce

36. udp://tracker.grepler.com:6969/announce

37. udp://ipv4.tracker.harry.lu:80/announce

38. udp://9.rarbg.to:2710/announce

39. udp://9.rarbg.me:2710/announce

40. udp://p4p.arenabg.com:1337/announce

41. udp://p4p.arenabg.ch:1337/announce

42. udp://tracker.opentrackr.org:1337/announce

43. udp://tracker.leechers-paradise.org:6969/announce

44. udp://eddie4.nl:6969/announce

45. udp://shadowshq.yi.org:6969/announce

46. udp://tracker.pirateparty.gr:6969/announce

47. udp://tracker.coppersurfer.tk:6969/announce

Comments

You must log in to add a comment.

Embed Code

Sharing Widget

Related torrents

FILENAME SIZE SEEDS PEERS ADDED UPD
[i] The.Death.Of.Louis.XIV.2016.LiMiTED.DVDRip.x264-LPD 313.52 MB 17 0 1 month 2 weeks
[i] The Death of Louis XIV 2016 720p BRRip x264 ESub
posted by moviefreak in Movies - Drama
1.08 GB 11 4 1 week 2 days
[i] The Death of Louis XIV 2016 iNTERNAL BDRip x264-LiBRARiANS 338.57 MB 7 3 5 days 4 days
[i] The.Death.of.Louis.XIV.2016.iNTERNAL.BDRip.x264-LiBRARiANS 338.38 MB 6 1 5 days 4 days
[i] Beyond Italy Louis Fuller And The Seven Doors Of Death 2011 DVDRiP x264-CREEPSHOW[rarbg] 147.57 MB 0 0 2 years 2 months
[i] Beyond Italy Louis Fuller And The Seven Doors Of Death 2011 DVDRiP x264-CREEPSHOW
posted by hotpena in Movies - Misc
153.54 MB 0 0 2 years 2 months

Top Movies ( auto generated report )

FILENAME SIZE SEEDS PEERS ADDED UPD
[i] Rememory (2017) [720p] [YTS AG] 836.63 MB 2190 863 3 days 1 hour
[i] Rememory (2017) [1080p] [YTS AG] 1.72 GB 2037 831 3 days 1 day
[i] 6 Below Miracle on the Mountain (2017) [720p] [YTS AG] 720.98 MB 1710 1045 1 day 5 hours
[i] Tulip Fever (2017) [720p] [YTS AG] 771.4 MB 1373 600 3 days 1 hour
[i] Super Dark Times (2017) [720p] [YTS AG] 750.11 MB 1421 1013 1 day 19 hours
[i] 6 Below Miracle on the Mountain (2017) [1080p] [YTS AG] 1.49 GB 1392 665 1 day 5 hours
[i] downloadhub in Tumhari Sulu (2017) Hindi 1CD PRE x264 AAC - Downloadhub 697.92 MB 1048 310 2 days 3 hours
[i] Beta Test (2016) [720p] [YTS AG] 640.68 MB 1198 486 3 days 1 day
[i] Justice League 2017 HDCAM NEW FULL Clean English Audio AAC x264 - EiE 1 GB 1157 401 1 day 6 hours
[i] Tulip Fever (2017) [1080p] [YTS AG] 1.6 GB 1055 390 3 days 1 hour