Romeo Express (2018) 720p Hindi Dubbed WEBHD x264 AAC 900MB [MovCr]

Posted on July 12, 2018 in Movies » Misc

Size: 893.1 MB , Seeds: 2 , Peers: 27 ( Updated July 12, 2018 - Refresh )

* Download via Magnet Link , * To download files you need a Bittorrent Client , * How to download torrents from Bit Torrent Scene?

Scrape History ( seeds + peers )

Internal Files

Romeo Express (2018) 720p Hindi Dubbed WEBHD x264 AAC 900MB [MovCr]
www.MovCr.com - Romeo Express   2018) 720p Hindi Dubbed WEBHD x264 AAC 900MB [MovCr].mkv (893.1 MB

Hash Code

bbe1e406cf58f1d6578daafa70271c412c0bd2fc

Description

Visit Our Site www.movcr.com

Kathiruppor Pattiyal (2018) Tamil In Hindi Dubbed


https://www.imdb.com/title/tt8176308/

SCREENSHOT

General

Unique ID                   : 224252811506369116930751362046941856394 (0xA8B5853E21E10F18C04931F45C76028A)

Complete name               : www.MovCr.com - Romeo Express (2018) 720p Hindi Dubbed WEBHD x264 AAC 900MB [MovCr].mkv

Format                      : Matroska

Format version              : Version 4 / Version 2

File size                   : 893 MiB

Duration                    : 1 h 45 min

Overall bit rate            : 1 181 kb/s

Movie name                  : www.MovCr.com

Encoded date                : UTC 2018-07-12 19:04:24

Writing application         : mkvmerge v23.0.0 ('The Bride Said No') 64-bit

Writing library             : libebml v1.3.6 + libmatroska v1.4.9


Video

ID                          : 1

Format                      : AVC

Format/Info                 : Advanced Video Codec

Format profile              : [email protected]
Format settings, CABAC      : Yes

Format settings, ReFrames   : 3 frames

Codec ID                    : V_MPEG4/ISO/AVC

Duration                    : 1 h 45 min

Bit rate                    : 1 053 kb/s

Width                       : 1 280 pixels

Height                      : 720 pixels

Display aspect ratio        : 16:9

Frame rate mode             : Constant

Frame rate                  : 24.000 FPS

Color space                 : YUV

Chroma subsampling          : 4:2:0

Bit depth                   : 8 bits

Scan type                   : Progressive

Bits/(Pixel*Frame)          : 0.048

Stream size                 : 796 MiB (89%)

Title                       : www.MovCr.com

Default                     : Yes

Forced                      : No

Color range                 : Limited

Color primaries             : BT.709

Transfer characteristics    : BT.709

Matrix coefficients         : BT.709


Audio

ID                          : 2

Format                      : AAC

Format/Info                 : Advanced Audio Codec

Format profile              : LC

Codec ID                    : A_AAC

Duration                    : 1 h 45 min

Bit rate                    : 126 kb/s

Channel(s)                  : 2 channels

Channel positions           : Front: L R

Sampling rate               : 44.1 kHz

Frame rate                  : 43.066 FPS (1024 spf)

Compression mode            : Lossy

Delay relative to video     : 85 ms

Stream size                 : 95.0 MiB (11%)

Title                       : www.MovCr.com

Language                    : Hindi

Default                     : Yes

Forced                      : No




SCREENSHOT
SCREENSHOT
SCREENSHOT
SCREENSHOT
SCREENSHOT
SCREENSHOT
SCREENSHOT
SCREENSHOT

Torrent location

https://www.1337x.to/torrent/3110372/Romeo-Express-2018-720p-Hindi-Dubbed-WEBHD-x264-AAC-900MB-MovCr/

Trackers

Refresh Leechers : Updated July 12, 2018

1. udp://9.rarbg.com:2710/announce

2. udp://tracker.opentrackr.org:1337/announce

3. udp://tracker.pirateparty.gr:6969/announce

4. udp://tracker.leechers-paradise.org:6969/announce

5. udp://tracker.coppersurfer.tk:6969/announce

6. udp://tracker.zer0day.to:1337/announce

Comments

You must log in to add a comment.

Embed Code

Sharing Widget

Top Movies ( auto generated report )

FILENAME SIZE SEEDS PEERS ADDED UPD
[i] Overboard (2018) [WEBRip] [720p] [YTS AM] 950.69 MB 5337 2987 1 day 17 hours
[i] How It Ends (2018) [WEBRip] [720p] [YTS AM] 970.57 MB 4127 2454 1 day 17 hours
[i] Furious (2017) [BluRay] [720p] [YTS AM] 1018.36 MB 3682 2215 1 day 17 hours
[i] Overboard (2018) [WEBRip] [1080p] [YTS AM] (1) 1.79 GB 2987 1164 1 day 17 hours
[i] Siberia (2018) [WEBRip] [720p] [YTS AM] 891.58 MB 2776 1456 1 day 17 hours
[i] How It Ends (2018) [WEBRip] [1080p] [YTS AM] 1.82 GB 2685 1386 1 day 17 hours
[i] Furious (2017) [BluRay] [1080p] [YTS AM] 1.9 GB 2622 1258 1 day 17 hours
[i] Siberia (2018) [WEBRip] [1080p] [YTS AM] 1.67 GB 1989 917 1 day 17 hours
[i] 7 Splinters in Time (2018) [WEBRip] [720p] [YTS AM] 653.09 MB 1218 446 1 day 17 hours
[i] Incredibles 2 2018 HDTC XViD AC3-ETRG 1.31 GB 1317 1064 3 days 2 days