Your IP Address is . Location is Your ISP and Government can track your torrent activity! Hide your IP with a VPN!

Red Sparrow 2018 HC 720p HDRip Eng Audio KorSub With Sample LLG

DOWNLOAD TORRENT DOWNLOAD PROTECT YOUR PRIVACY

Posted by LifeLongg •582 on April 16, 2018 in Movies » Drama , verified torrent

Size: 1.38 GB , Seeds: 12 , Peers: 13 ( Updated April 17, 2018 - Refresh )

* Download via Magnet Link , * To download files you need a Bittorrent Client , * How to download torrents from Bit Torrent Scene?

Scrape History ( seeds + peers )

Internal Files

Red.Sparrow.2018.HC.720p.HDRip.Eng.Audio.KorSub.With.Sample.LLG
Sample.ts   5.54 MB
Red.Sparrow.2018.HC.720p.HDRip.Eng.Audio.KorSub.With.Sample.LLG.mp4   1.37 GB

Hash Code

d003d5a46c770768522d6988b4c6ead574163e49

Description

SCREENSHOT

SCREENSHOT

******************************Thumbnail:**********************

SCREENSHOT

******************************Screenshots:********************

Screenshot 1

Screenshot 2

Screenshot 3

Screenshot 4

Screenshot 5

Screenshot 6

Screenshot 7

Screenshot 8

Screenshot 9

Screenshot 0

**************************************************************

Complete name : Red.Sparrow.2018.HC.720p.HDRip.Eng.Audio.KorSub.With.Sample.LLG.mp4
Format : MPEG-4
Format profile : Base Media
Codec ID : isom (isom/iso2/avc1/mp41)
File size : 1.37 GiB
Duration : 2 h 15 min
Overall bit rate : 1 445 kb/s
Writing application : Lavf57.56.101

Video
ID : 1
Format : AVC
Format/Info : Advanced Video Codec
Format profile : High@L4
Format settings : CABAC / 4 Ref Frames
Format settings, CABAC : Yes
Format settings, RefFrames : 4 frames
Codec ID : avc1
Codec ID/Info : Advanced Video Coding
Duration : 2 h 15 min
Bit rate : 1 200 kb/s
Width : 1 904 pixels
Height : 800 pixels
Display aspect ratio : 2.40:1
Frame rate mode : Constant
Frame rate : 29.970 (29970/1000) FPS
Color space : YUV
Chroma subsampling : 4:2:0
Bit depth : 8 bits
Scan type : Progressive
Bits/(Pixel*Frame) : 0.026
Stream size : 1.12 GiB (82%)

Audio
ID : 2
Format : AC-3
Format/Info : Audio Coding 3
Codec ID : ac-3
Duration : 2 h 15 min
Bit rate mode : Constant
Bit rate : 256 kb/s
Channel(s) : 2 channels
Channel positions : Front: L R
Sampling rate : 48.0 kHz
Frame rate : 31.250 FPS (1536 SPF)
Bit depth : 16 bits
Compression mode : Lossy
Stream size : 249 MiB (18%)
Language : English
Service kind : Complete Main
Default : Yes
Alternate group : 1

Trackers

Refresh Leechers : Updated April 17, 2018

1. udp://tracker.openbittorrent.com:80/announce

2. udp://tracker.opentrackr.org:1337/announce

Comments

You must log in to add a comment.

Embed Code

Sharing Widget

Related torrents

FILENAME SIZE SEEDS PEERS ADDED UPD
[i] Red.Sparrow.2018.HC.HDRip.XviD.AC3-EVO[EtMovies] 1.31 GB 4919 3398 4 days 3 days
[i] Red Sparrow 2018 HC HDRip XViD-ETRG
posted by juggs in Movies - Action
1.28 GB 305 273 4 days 3 days
[i] 18+ RED SPARROW 2018 720p HC HDRip AC3 LLG
posted by LifeLongg in Movies - Drama
1.12 GB 104 147 3 days 2 days
[i] Red Sparrow 2018 iTALiAN MD 720p HDTS x264-iSTANCE[MT]
posted by Survivalofmisa in Movies - Thriller
1.65 GB 54 5 1 month 6 days
[i] Red Sparrow 2018 1080p HC HDRip AAC 2 0 x264 [MW]
posted by moviefreak in Movies - Mystery
1.99 GB 54 36 3 days 2 days
[i] 18+ Red Sparrow 2018 HC HDRip XviD AC3 LLG
posted by LifeLongg in Movies - Drama
1005.99 MB 53 44 1 day 22 hours
[i]
[i]
Red Sparrow 2018 HDCAM ENG X264 HQMic-BABY
Movies - Misc , Quality: Audio 4/10 - Video 7/10
2 GB 52 23 3 weeks 1 week
[i] downloadhub in Red Sparrow (2018) 720p HC HDRip x264 AAC - Downloadhub
posted by downloadhub in Movies - Drama
1.01 GB 44 38 4 days 3 days
[i] Red.Sparrow.2018.HC.HDRip.XviD.AC3-EVO[N1C] 1.32 GB 41 9 4 days 3 days
[i] Red Sparrow 2018 HDCAM 720p MP3 HQMic - Makintos13 964 MB 35 11 1 month 1 day

Top Movies ( auto generated report )

FILENAME SIZE SEEDS PEERS ADDED UPD
[i] 12 Strong (2018) [BluRay] [1080p] [YTS AM] 2.09 GB 3539 2331 22 hours 20 hours
[i] 12 Strong (2018) [BluRay] [720p] [YTS AM] 1.09 GB 3362 3040 22 hours 20 hours
[i] Peter Rabbit (2018) [BluRay] [720p] [YTS AM] 813.66 MB 3311 3680 22 hours 20 hours
[i] Peter Rabbit (2018) [BluRay] [1080p] [YTS AM] 1.52 GB 2696 2510 22 hours 20 hours
[i] Pacific.Rim.2.Uprising.2018.KORSUB.HDRip.x264-STUTTERSHIT 1.05 GB 2686 1314 1 day 18 hours
[i] The Debt Collector (2018) [WEBRip] [720p] [YTS AM] 816.73 MB 1527 1000 1 day 21 hours
[i] Forever My Girl (2018) [BluRay] [720p] [YTS AM] 911.76 MB 1527 1344 22 hours 20 hours
[i] The Debt Collector (2018) [WEBRip] [1080p] [YTS AM] 1.53 GB 1055 628 1 day 21 hours
[i] Hostiles (2017) [BluRay] [1080p] [YTS AM] 2.17 GB 1024 661 22 hours 20 hours
[i] Hostiles (2017) [BluRay] [720p] [YTS AM] 1.14 GB 982 599 22 hours 20 hours