Red Sparrow 2018 720p HC HDRip x264 [MW]

Posted by moviefreak •1808 on April 16, 2018 in Movies » Mystery , verified torrent

Size: 1.06 GB , Seeds: 5 , Peers: 5 ( Updated June 19, 2018 - Refresh )

* Download via Magnet Link , * To download files you need a Bittorrent Client , * How to download torrents from Bit Torrent Scene?

Scrape History ( seeds + peers )

Internal Files

Red Sparrow 2018 720p HC HDRip x264 [MW]
Red Sparrow 2018 720p HC HDRip x264 [MW].mkv   1.06 GB

Hash Code

03c6c49e609eecd22c434eb47de37d61057f6f37

Description


SCREENSHOT


General
Format : Matroska
Format version : Version 4 / Version 2
File size : 1.06 GiB
Duration : 2 h 15 min
Overall bit rate : 1 115 kb/s

Video
ID : 1
Format : AVC
Format/Info : Advanced Video Codec
Format profile : High@L4.1
Format settings : CABAC / 4 Ref Frames
Format settings, CABAC : Yes
Format settings, RefFrames : 4 frames
Codec ID : V_MPEG4/ISO/AVC
Duration : 2 h 15 min
Bit rate : 1 000 kb/s
Width : 1 280 pixels
Height : 538 pixels
Display aspect ratio : 2.40:1
Frame rate mode : Constant
Frame rate : 29.970 (30000/1001) FPS
Color space : YUV
Chroma subsampling : 4:2:0
Bit depth : 8 bits
Scan type : Progressive
Bits/(Pixel*Frame) : 0.048
Stream size : 956 MiB (88%)
Writing library : x264 core 155 r2893 b00bcaf
Default : Yes
Forced : No

Audio
ID : 2
Format : AAC
Format/Info : Advanced Audio Codec
Format profile : LC
Codec ID : A_AAC-2
Duration : 2 h 15 min
Bit rate : 128 kb/s
Channel(s) : 2 channels
Channel positions : Front: L R
Sampling rate : 48.0 kHz
Frame rate : 46.875 FPS (1024 SPF)
Compression mode : Lossy
Stream size : 124 MiB (11%)
Language : English
Default : Yes
Forced : No





https://pichub.site/image/JsAzb
https://pichub.site/image/JsB50
https://pichub.site/image/JsKqV
https://pichub.site/image/JsmwT
https://pichub.site/image/Jsu0N
https://pichub.site/image/JsGFD

Trackers

Refresh Leechers : Updated June 19, 2018

1. udp://tracker.pirateparty.gr:6969/announce

2. udp://tracker.opentrackr.org:1337/announce

3. udp://tracker.opentrackr.org:80/announce

4. udp://tracker.vanitycore.co:6969/announce

5. udp://public.popcorn-tracker.org:6969/announce

6. udp://9.rarbg.to:2720/announce

7. udp://9.rarbg.me:2740/announce

8. udp://9.rarbg.com:2790/announce

9. udp://inferno.demonoid.pw:3391/announce

10. udp://tracker.internetwarriors.net:1337/announce

11. udp://ipv4.tracker.harry.lu:80/announce

12. udp://p4p.arenabg.ch:1337/announce

13. http://tracker.vanitycore.co:6969/announce

14. http://public.popcorn-tracker.org:6969/announce

15. udp://tracker.zer0day.to:1337/announce

16. udp://tracker.leechers-paradise.org:6969/announce

17. udp://coppersurfer.tk:6969/announce

Comments

You must log in to add a comment.

Embed Code

Sharing Widget

Related torrents

FILENAME SIZE SEEDS PEERS ADDED UPD
[i] Red Sparrow (2018) [BluRay] [720p] [YTS AM] 1.17 GB 3076 626 2 months 2 days
[i] Red Sparrow (2018) Jennifer Lawrence.720p.H264.italian.English.Ac3-5.1.sub.ita.eng.MIRCrew
posted by robbyrs3 in Movies - Thriller
2.73 GB 175 39 2 months 4 weeks
[i] downloadhub in Red Sparrow (2018) 720p BluRay x264 [Dual-Audio][Hindi 5 1 - English 5 1] ESubs - Downloadhub
posted by downloadhub in Movies - Drama
1.31 GB 103 54 2 months 4 weeks
[i] Red Sparrow 2018 720p BRRip x264 AAC-ETRG
posted by juggs in Movies - Thriller
986.65 MB 36 11 2 months 1 month
[i] Red Sparrow 2018 iTALiAN MD 720p HDTS x264-iSTANCE[MT]
posted by Survivalofmisa in Movies - Thriller
1.65 GB 20 4 4 months 4 weeks
[i] Red Sparrow 2018 720p BluRay x264 Dual Audio [Hindi DD 5 1 - English 2 0] ESub [MW]
posted by moviefreak in Movies - Thriller
1.28 GB 20 8 2 months 4 weeks
[i] Red Sparrow 2018 HDCAM 720p MP3 HQMic - Makintos13 964 MB 13 2 4 months 3 weeks
[i] Red.Sparrow.2018.720p.BluRay.x264-x0r[N1C] 2.95 GB 10 2 2 months 5 min
[i] Red Sparrow 2018.720p.HDCAM.X264-MyBankAccountIsOnline 5.1 GB 9 6 4 months 1 month
[i] 18+ Red Sparrow 2018 720p BluRay x264 AAC LLG
posted by LifeLongg in Movies - Drama
1.05 GB 9 9 2 months 4 weeks

Top Movies ( auto generated report )

FILENAME SIZE SEEDS PEERS ADDED UPD
[i] Traffik (2018) [BluRay] [720p] [YTS AM] 820.11 MB 3689 2099 4 days 3 days
[i] 5th Passenger (2018) [WEBRip] [720p] [YTS AM] 770.87 MB 3061 1530 4 days 3 days
[i] 5th Passenger (2018) [WEBRip] [1080p] [YTS AM] 1.44 GB 2701 888 4 days 3 days
[i] Bilal A New Breed of Hero (2015) [WEBRip] [720p] [YTS AM] 940.45 MB 2114 832 4 days 3 days
[i] Traffik (2018) [BluRay] [1080p] [YTS AM] 1.55 GB 2032 850 4 days 3 days
[i] Bilal A New Breed of Hero (2015) [WEBRip] [1080p] [YTS AM] 1.76 GB 1482 403 4 days 1 day
[i] White Fang (2018) [WEBRip] [720p] [YTS AM] 744.41 MB 1446 483 4 days 3 days
[i] Incredibles 2 2018 HDTC XViD AC3-ETRG 1.31 GB 1317 1064 2 days 1 day
[i] The Endless (2017) [BluRay] [720p] [YTS AM] 964.73 MB 1203 447 4 days 3 days
[i] 211 (2018) [BluRay] [720p] [YTS AM] 753.25 MB 1022 408 4 days 3 days