Eddie.and.the.Cruisers.1983.iNTERNAL.BDRip.x264-LiBRARiANS

DOWNLOAD TORRENT DOWNLOAD DOWNLOAD ANONYMOUS

Posted on November 14, 2017 in Movies » Misc , verified torrent

Size: 1.29 GB , Seeds: 3 , Peers: 3 ( Updated November 15, 2017 - Refresh )

* Download via Magnet Link , * To download files you need a Bittorrent Client , * How to download torrents from Bit Torrent Scene?

Scrape History ( seeds + peers )

Internal Files

Eddie.and.the.Cruisers.1983.iNTERNAL.BDRip.x264-LiBRARiANS
Eddie.and.the.Cruisers.1983.iNTERNAL.BDRip.x264-LiBRARiANS.mkv   1.28 GB
lib-eddie.and.the.cruisers.1983.internal.bdrip.x264.nfo   737 Byte

Hash Code

66daf8318d03f4b4662fc29f7d880acac9eedc17

Description

Eddie.and.the.Cruisers.1983.iNTERNAL.BDRip.x264-LiBRARiANS

ImDb: http://www.imdb.com/title/tt0085475

SCREENSHOT

Complete name : Eddie.and.the.Cruisers.1983.iNTERNAL.BDRip.x264-LiBRARiANS.mkv
Format : Matroska
Format version : Version 4 / Version 2
File size : 1.28 GiB
Duration : 1 h 35 min
Overall bit rate : 1 922 kb/s
Encoded date : UTC 2017-11-14 14:26:22
Writing application : mkvmerge v17.0.0 ('Be Ur Friend') 64-bit
Writing library : libebml v1.3.5 + libmatroska v1.4.8

Video
ID : 1
Format : AVC
Format/Info : Advanced Video Codec
Format profile : [email protected]
Format settings, CABAC : Yes
Format settings, ReFrames : 5 frames
Codec ID : V_MPEG4/ISO/AVC
Duration : 1 h 35 min
Bit rate : 1 780 kb/s
Width : 720 pixels
Height : 392 pixels
Display aspect ratio : 1.85:1
Frame rate mode : Constant
Frame rate : 23.976 (24000/1001) FPS
Color space : YUV
Chroma subsampling : 4:2:0
Bit depth : 8 bits
Scan type : Progressive
Bits/(Pixel*Frame) : 0.263
Stream size : 1.19 GiB (93%)
Writing library : x264 core 152 r2851 ba24899
Encoding settings : cabac=1 / ref=5 / deblock=1:-3:-3 / analyse=0x3:0x113 / me=umh / subme=8 / psy=1 / psy_rd=1.00:0.25 / mixed_ref=1 / me_range=24 / chroma_me=1 / trellis=2 / 8x8dct=1 / cqm=0 / deadzone=21,11 / fast_pskip=1 / chroma_qp_offset=-4 / threads=12 / lookahead_threads=2 / sliced_threads=0 / nr=0 / decimate=1 / interlaced=0 / bluray_compat=0 / constrained_intra=0 / bframes=3 / b_pyramid=2 / b_adapt=1 / b_bias=0 / direct=3 / weightb=1 / open_gop=0 / weightp=2 / keyint=240 / keyint_min=24 / scenecut=40 / intra_refresh=0 / rc_lookahead=50 / rc=crf / mbtree=1 / crf=19.0 / qcomp=0.60 / qpmin=0 / qpmax=69 / qpstep=4 / ip_ratio=1.40 / aq=1:0.75
Default : Yes
Forced : No
Color range : Limited
Matrix coefficients : BT.709

Audio
ID : 2
Format : AAC
Format/Info : Advanced Audio Codec
Format profile : LC
Codec ID : A_AAC
Duration : 1 h 35 min
Bit rate : 140 kb/s
Channel(s) : 2 channels
Channel positions : Front: L R
Sampling rate : 48.0 kHz
Frame rate : 46.875 FPS (1024 spf)
Compression mode : Lossy
Delay relative to video : 9 ms
Stream size : 95.5 MiB (7%)
Language : English
Default : Yes
Forced : No

Menu
00:00:00.000 : en:00:00:00.000
00:08:30.301 : en:00:08:30.301
00:17:56.701 : en:00:17:56.701
00:30:20.360 : en:00:30:20.360
00:45:37.109 : en:00:45:37.109
00:59:43.705 : en:00:59:43.705
01:11:03.759 : en:01:11:03.759
01:22:34.950 : en:01:22:34.950
01:35:11.122 : en:01:35:11.122

SCREENSHOT

SCREENSHOT

Click To View Screenshot

Click To View Screenshot

Click To View Screenshot

Torrent location

https://www.1337x.to/torrent/2590652/Eddie-and-the-Cruisers-1983-iNTERNAL-BDRip-x264-LiBRARiANS/

Trackers

Refresh Leechers : Updated November 15, 2017

1. http://bigfoot1942.sektori.org:6969/announce

2. http://tracker2.wasabii.com.tw:6969/announce

3. http://tracker.opentrackr.org/announce

4. http://announce.torrentsmd.com:6969/announce

5. http://tracker.trackerfix.com/announce

6. http://tracker.opentrackr.org/announce

7. udp://explodie.org:6969/announce

8. udp://mgtracker.org:6969/announce

9. udp://asnet.pw:2710/announce

10. udp://tracker.mgtracker.org:2710/announce

11. udp://tracker4.piratux.com:6969/announce

12. udp://tracker.trackerfix.com:80/announce

13. udp://tracker.pomf.se:80/announce

14. udp://tracker.x4w.co:6969/announce

15. udp://castradio.net:6969/announce

16. udp://ipv4.tracker.harry.lu:80/announce

17. udp://tracker.mg64.net:6881/announce

18. udp://tracker.sktorrent.net:6969/announce

19. udp://tracker.blackunicorn.xyz:6969/announce

20. udp://tracker.internetwarriors.net:1337/announce

21. udp://public.popcorn-tracker.org:6969/announce

22. udp://glotorrents.pw:6969/announce

23. udp://tracker.vanitycore.co:6969/announce

24. udp://tracker.trackerfix.com:80/announce

25. udp://p4p.arenabg.ch:1337/announce

26. udp://9.rarbg.me:2710/announce

27. udp://tracker.zer0day.to:1337/announce

28. udp://tracker.opentrackr.org:1337/announce

29. udp://tracker.pirateparty.gr:6969/announce

30. udp://9.rarbg.to:2710/announce

31. udp://eddie4.nl:6969/announce

32. udp://tracker.coppersurfer.tk:6969/announce

33. udp://tracker.leechers-paradise.org:6969/announce

34. udp://tracker.zer0day.to:1337/announce

35. udp://public.popcorn-tracker.org:6969/announce

36. udp://tracker.grepler.com:6969/announce

37. udp://ipv4.tracker.harry.lu:80/announce

38. udp://9.rarbg.to:2710/announce

39. udp://9.rarbg.me:2710/announce

40. udp://p4p.arenabg.com:1337/announce

41. udp://p4p.arenabg.ch:1337/announce

42. udp://tracker.opentrackr.org:1337/announce

43. udp://tracker.leechers-paradise.org:6969/announce

44. udp://eddie4.nl:6969/announce

45. udp://shadowshq.yi.org:6969/announce

46. udp://tracker.pirateparty.gr:6969/announce

47. udp://tracker.coppersurfer.tk:6969/announce

Comments

You must log in to add a comment.

Embed Code

Sharing Widget

Related torrents

FILENAME SIZE SEEDS PEERS ADDED UPD
[i] Eddie.and.the.Cruisers.II.Eddie.Lives.1989.iNTERNAL.BDRip.x264-LiBRARiANS 1.21 GB 5 2 5 days 4 days
[i] John Cafferty - Eddie and the Cruisers (Big Papi) Soundtrack 73.66 MB 4 0 3 years 3 months
[i] John Cafferty & The Beaver Brown Band - Roadhouse; The Voice of Eddie & the Cruisers (Big Papi) 114.16 MB 1 0 2 years 3 months

Top Movies ( auto generated report )

FILENAME SIZE SEEDS PEERS ADDED UPD
[i] Rememory (2017) [720p] [YTS AG] 836.63 MB 2190 863 3 days 1 hour
[i] Rememory (2017) [1080p] [YTS AG] 1.72 GB 2037 831 3 days 1 day
[i] 6 Below Miracle on the Mountain (2017) [720p] [YTS AG] 720.98 MB 1710 1045 1 day 5 hours
[i] Tulip Fever (2017) [720p] [YTS AG] 771.4 MB 1373 600 3 days 1 hour
[i] Super Dark Times (2017) [720p] [YTS AG] 750.11 MB 1421 1013 1 day 19 hours
[i] 6 Below Miracle on the Mountain (2017) [1080p] [YTS AG] 1.49 GB 1392 665 1 day 5 hours
[i] downloadhub in Tumhari Sulu (2017) Hindi 1CD PRE x264 AAC - Downloadhub 697.92 MB 1048 310 2 days 3 hours
[i] Beta Test (2016) [720p] [YTS AG] 640.68 MB 1198 486 3 days 1 day
[i] Justice League 2017 HDCAM NEW FULL Clean English Audio AAC x264 - EiE 1 GB 1157 401 1 day 6 hours
[i] Tulip Fever (2017) [1080p] [YTS AG] 1.6 GB 1055 390 3 days 1 hour