Your IP Address is . Location is Your ISP and Government can track your torrent activity! Hide your IP with a VPN!

Dragonballsuper epi 28-51 Ita Mp4 Icv-crew

DOWNLOAD TORRENT DOWNLOAD DOWNLOAD ANONYMOUS

Posted by robbyrs3 •404 on October 12, 2017 in Anime » Cartoons , verified torrent

Size: 2.14 GB , Seeds: 16 , Peers: 3 ( Updated December 15, 2017 - Refresh )

* Download via Magnet Link , * To download files you need a Bittorrent Client , * How to download torrents from Bit Torrent Scene?

Scrape History ( seeds + peers )

Internal Files

Dragonballsuper epi 28-51.Ita.Mp4 Icv-crew
28° Puntata - DB Super.mp4   80.8 MB
29° Puntata - DB Super.mp4   125.13 MB
30° Puntata - DB Super.mp4   74.33 MB
31° Puntata - DB Super.mp4   74.33 MB
32° Puntata - DB Super.mp4   75.45 MB
33° Puntata - DB Super.mp4   114.19 MB
34° Puntata - DB Super.mp4   114.94 MB
35° Puntata - DB Super.mp4   114.13 MB
36° Puntata - DB Super.mp4   114.68 MB
37° Puntata - DB Super.mp4   76.58 MB
38° Puntata - DB Super.mp4   74.79 MB
39° Puntata - DB Super.mp4   83.38 MB
40° Puntata - DB Super.mp4   114.78 MB
41° Puntata - DB Super.mp4   114.71 MB
42° Puntata - DB Super.mp4   114.29 MB
43° Puntata - DB Super.mp4   74.16 MB
44° Puntata - DB Super.mp4   76.83 MB
45° Puntata - DB Super.mp4   77.45 MB
46° Puntata - DB Super.mp4   82.23 MB
47° Puntata - DB Super.mp4   72.2 MB
48° Puntata - DB Super.mp4   77.96 MB
49° Puntata - DB Super.mp4   74.26 MB
50° Puntata - DB Super.mp4   114.69 MB
51° Puntata - DB Super.mp4   75.25 MB

Hash Code

15ed615a5e4f4fc589d1a44da4b7aee843977a71

Description

Dragon Ball Super epi 28-51 (2016).Mp4.Ita.Aac.iCV-Crew


SCREENSHOT

SCREENSHOT

Serie TV anime
Lingua orig. giapponese
Paese Giappone
Regia Kimitoshi Chioka (ep. 1-46), Morio Hatano (ep. 33+), Kohei Hatano (ep. 68+)
Produttori Osamu Nozaki, Naoko Sagawa, Atsushi Kido
Char. design Tadayoshi Yamamuro, Akira Toriyama (base)
Dir. artistica Shinzo Yuki
Musiche Norihito Sumitomo
Studio Toei Animation
Rete Fuji Television
1ª TV 5 luglio 2015 – in corso
Periodicità settimanale
Episodi 72 (in corso)
Aspect ratio 16:9
Durata ep. 23 min
Rete it. Italia 1
1ª TV it. 23 dicembre 2016 – in corso
Dialoghi it. Alessandro Germano, Maria Grazia Pellegatta, Simone Lupinacci
Studio dopp. it. Merak Film
Dir. dopp. it. Graziano Galoforo
Generi azione, fantasy, fantascienza

Trama:

Circa sei mesi dopo la sconfitta di Majin Bu, la Terra è tornata in pace, ma Goku e Vegeta continuano ad allenarsi, nonostante il dissenso delle rispettive mogli. Il Dio della distruzione Beerus si risveglia dopo 39 anni di sonno, e insieme al suo maestro Whis va alla ricerca del "Super Saiyan God", un guerriero che gli è apparso in sogno...

SCREENSHOT
SCREENSHOT
SCREENSHOT
SCREENSHOT

Dati File:

[spoiler]
General
Complete name : Dragonballsuper epi 28-51.Ita.Mp4 Icv-crew41° Puntata - DB Super.mp4
Format : MPEG-4
Format profile : Base Media
Codec ID : isom
File size : 115 MiB
Duration : 19mn 9s
Overall bit rate mode : Variable
Overall bit rate : 837 Kbps

Video
ID : 2
Format : AVC
Format/Info : Advanced Video Codec
Format profile : High@L3.1
Format settings, CABAC : Yes
Format settings, ReFrames : 4 frames
Codec ID : avc1
Codec ID/Info : Advanced Video Coding
Duration : 19mn 9s
Source duration : 19mn 9s
Bit rate : 700 Kbps
Width : 712 pixels
Original width : 720 pixels
Height : 416 pixels
Original height : 408 pixels
Display aspect ratio : 16:9
Original display aspect ratio : 16:9
Frame rate mode : Variable
Frame rate : 25.000 fps
Minimum frame rate : 5.000 fps
Maximum frame rate : 100.000 fps
Color space : YUV
Chroma subsampling : 4:2:0
Bit depth : 8 bits
Scan type : Progressive
Bits/(Pixel*Frame) : 0.095
Stream size : 95.6 MiB (83%)
Source stream size : 95.6 MiB (83%)
Writing library : x264 core 148
Encoding settings : cabac=1 / ref=3 / deblock=1:0:0 / analyse=0x3:0x113 / me=hex / subme=7 / psy=1 / psy_rd=1.00:0.00 / mixed_ref=1 / me_range=8 / chroma_me=1 / trellis=1 / 8x8dct=1 / cqm=0 / deadzone=21,11 / fast_pskip=1 / chroma_qp_offset=-2 / threads=4 / lookahead_threads=1 / sliced_threads=0 / nr=0 / decimate=1 / interlaced=0 / bluray_compat=0 / constrained_intra=0 / bframes=3 / b_pyramid=2 / b_adapt=1 / b_bias=0 / direct=1 / weightb=1 / open_gop=0 / weightp=2 / keyint=250 / keyint_min=25 / scenecut=40 / intra_refresh=0 / rc_lookahead=40 / rc=2pass / mbtree=1 / bitrate=700 / ratetol=1.0 / qcomp=0.60 / qpmin=0 / qpmax=69 / qpstep=4 / cplxblur=20.0 / qblur=0.5 / vbv_maxrate=800 / vbv_bufsize=1200 / nal_hrd=none / filler=0 / ip_ratio=1.40 / aq=1:1.00
mdhd_Duration : 1149600

Audio
ID : 1
Format : AAC
Format/Info : Advanced Audio Codec
Format profile : LC
Codec ID : 40
Duration : 19mn 9s
Bit rate mode : Variable
Bit rate : 128 Kbps
Maximum bit rate : 205 Kbps
Channel(s) : 2 channels
Channel positions : Front: L R
Sampling rate : 44.1 KHz
Compression mode : Lossy
Delay relative to video : -4s 180ms
Stream size : 17.5 MiB (15%)

[/spoiler]

Trackers

Refresh Leechers : Updated December 15, 2017

1. udp://tracker.coppersurfer.tk:6969/announce

2. udp://tracker.opentrackr.org:1337/announce

3. udp://tracker.leechers-paradise.org:6969/announce

4. udp://9.rarbg.com:2710/announce

5. udp://9.rarbg.to:2710/announce

6. udp://9.rarbg.me:2710/announce

7. udp://glotorrents.pw:6969/announce

8. udp://tracker.openbittorrent.com:80/announce

9. udp://tracker.pubt.net:2710/announce

10. udp://tracker.ilibr.org:6969/announce

11. udp://tracker.ilibr.org:80/announce

12. udp://zer0day.to:1337/announce

13. udp://tracker.zer0day.to:1337/announce

14. udp://p4p.arenabg.com:1337/announce

15. udp://p4p.arenabg.ch:1337/announce

16. udp://explodie.org:6969/announce

17. udp://eddie4.nl:6969/announce

Comments

You must log in to add a comment.

Embed Code

Sharing Widget

Top Anime ( auto generated report )

FILENAME SIZE SEEDS PEERS ADDED UPD
[i] Blame.2017.iTA.AAC.BRRip.x264-iCV-CreW 475.57 MB 20 4 6 days 2 hours
[i] The Ancient Magus Bride S01-E07 Talk of the Devil and he is sure to appear mp4 1.07 GB 13 4 2 days 1 day
[i] Blame 2017 Bluray 1080p x264 AC3 5 1 ITA JAP-Bymonello78 mkv 9.25 GB 1 114 1 day 12 hours