Card Captor Sakura - The Movie [BDmux 720p - H264 - Ita Eng Jap Ac3 - Cartelli SoftSub Ita Eng]

DOWNLOAD TORRENT DOWNLOAD DOWNLOAD ANONYMOUS

Posted by MPT2 •144 on November 10, 2017 in Anime » Cartoons , verified torrent

Size: 6.14 GB , Seeds: 5 , Peers: 2 ( Updated November 16, 2017 - Refresh )

* Download via Magnet Link , * To download files you need a Bittorrent Client , * How to download torrents from Bit Torrent Scene?

Scrape History ( seeds + peers )

Internal Files

Card Captor Sakura - The Movie[BDmux 720p - H264 - Ita Eng Jap Ac3 - Cartelli SoftSub Ita Eng]
Card Captor Sakura - The Movie.mkv   6.14 GB

Hash Code

4ab6240f3fe8bd914a343a3b281f86cea5413a5b

Description

Card Captor Sakura - The Movie [BDmux 720p - H264 - Ita Eng Jap Ac3 - Cartelli SoftSub Ita Eng]

.: Trama :.

Il film si svolge tra la prima e la seconda stagione originale della serie animata, cioè tra l'episodio 35 e il 36.

In occasione delle vacanze invernali, Sakura, con Kero-chan, Touya, Tomoyo e Yukito, si recano nella misteriosa Hong Kong, grazie ad una fortunata estrazione della protagonista, che le fa vincere un viaggio per quattro persone.
Subito dopo essere arrivati, incontreranno Li ShaoLang, e sua cugina MeiLing.

Intanto, Sakura inizierà ad avere strani sogni, in cui fluttua nell'acqua, e successivamente, in cui dei nastri le si avvolgono intorno al corpo.
Da allora, sentirà una strana presenza per le vie di Hong Kong...

.: Locandina :.

SCREENSHOT

.: Scheda :.

Titolo originale: Card Captor Sakura - The Movie (劇場版カードキャプターさくら Gekijōban Kādokyaputā Sakura)
Anno: Giappone 21 agosto 1999
Genere: Shōjo / Avventura, combattimento, majokko, scolastico, sentimentale
Produzione: Madhouse
Distribuzione: Giappone, Bandai Visual Company, NHK Enterprises / Italia, Shin Vision, Yamato Video
Numero episodi: 01 (film)
Durata approssimativa degli episodi: 82 min

.: Screenshot :.

SCREENSHOT

.: Dati tecnici del file :.

Info sul file

Nome: Card Captor Sakura S01e01 - Il libro misterioso.mkv
Data: 4/07/2017 19:38:08
Dimensione: 1,067,274,784 bytes (1017.833 MB)

General

Unique ID : 201038717650418757088737669514110033770 (0x973EA60CA494906A947C5927D1A9DF6A)
Complete name : G:Card Captor SakuraCard Captor Sakura - MovieCard Captor Sakura - The Movie.mkv
Format : Matroska
Format version : Version 4 / Version 2
File size : 6.14 GiB
Duration : 1 h 22 min
Overall bit rate : 10.7 Mb/s
Movie name : Card Captor Sakura: The Movie - Mux By MPT
Encoded date : UTC 2017-11-02 17:09:51
Writing application : mkvmerge v17.0.0 ('Be Ur Friend') 64-bit
Writing library : libebml v1.3.5 + libmatroska v1.4.8
Attachments : ARIALUNI.TTF / Balzac-Regular.ttf / ClearfaceGothicLTStd-Roman.otf / Disney_Simple.ttf / DruagaQuorum.ttf / fansubBlock.ttf / Gotham-Medium.ttf

Video

ID : 1
Format : AVC
Format/Info : Advanced Video Codec
Format profile : High 10@L5
Format settings, CABAC : Yes
Format settings, ReFrames : 16 frames
Codec ID : V_MPEG4/ISO/AVC
Duration : 1 h 21 min
Bit rate : 9 390 kb/s
Width : 1 280 pixels
Height : 720 pixels
Display aspect ratio : 16:9
Frame rate mode : Constant
Frame rate : 23.976 (24000/1001) FPS
Color space : YUV
Chroma subsampling : 4:2:0
Bit depth : 10 bits
Scan type : Progressive
Bits/(Pixel*Frame) : 0.425
Stream size : 5.35 GiB (87%)
Writing library : x264 core 115 r2008+578 3864dbe
Encoding settings : cabac=1 / ref=16 / deblock=1:-2:-2 / analyse=0x3:0x133 / me=umh / subme=10 / psy=1 / fade_compensate=0.00 / psy_rd=0.70:0.10 / mixed_ref=1 / me_range=24 / chroma_me=1 / trellis=2 / 8x8dct=1 / cqm=0 / deadzone=21,11 / fast_pskip=1 / chroma_qp_offset=-3 / threads=9 / sliced_threads=0 / nr=0 / decimate=1 / interlaced=0 / bluray_compat=0 / constrained_intra=0 / fgo=0 / bframes=8 / b_pyramid=2 / b_adapt=2 / b_bias=0 / direct=3 / weightb=1 / open_gop=0 / weightp=2 / keyint=250 / keyint_min=23 / scenecut=40 / intra_refresh=0 / rc_lookahead=60 / rc=crf / mbtree=1 / crf=18.0 / qcomp=0.60 / qpmin=0 / qpmax=81 / qpstep=4 / ip_ratio=1.40 / aq=1:1.20
Default : Yes
Forced : No

Audio #1

ID : 2
Format : AC-3
Format/Info : Audio Coding 3
Mode extension : CM (complete main)
Format settings, Endianness : Big
Codec ID : A_AC3
Duration : 1 h 21 min
Bit rate mode : Constant
Bit rate : 448 kb/s
Channel(s) : 2 channels
Channel positions : Front: L R
Sampling rate : 48.0 kHz
Frame rate : 31.250 FPS (1536 spf)
Bit depth : 16 bits
Compression mode : Lossy
Stream size : 261 MiB (4%)
Title : Italiano
Language : Italian
Default : Yes
Forced : No

Audio #2

ID : 3
Format : AC-3
Format/Info : Audio Coding 3
Mode extension : CM (complete main)
Format settings, Endianness : Big
Codec ID : A_AC3
Duration : 1 h 22 min
Bit rate mode : Constant
Bit rate : 448 kb/s
Channel(s) : 2 channels
Channel positions : Front: L R
Sampling rate : 48.0 kHz
Frame rate : 31.250 FPS (1536 spf)
Bit depth : 16 bits
Compression mode : Lossy
Stream size : 263 MiB (4%)
Title : Inglese
Language : English
Default : No
Forced : No

Audio #3

ID : 4
Format : AC-3
Format/Info : Audio Coding 3
Mode extension : CM (complete main)
Format settings, Endianness : Big
Codec ID : A_AC3
Duration : 1 h 21 min
Bit rate mode : Constant
Bit rate : 448 kb/s
Channel(s) : 2 channels
Channel positions : Front: L R
Sampling rate : 48.0 kHz
Frame rate : 31.250 FPS (1536 spf)
Bit depth : 16 bits
Compression mode : Lossy
Stream size : 261 MiB (4%)
Title : Giapponese
Language : Japanese
Default : No
Forced : No

Text #1

ID : 5
Format : ASS
Codec ID : S_TEXT/ASS
Codec ID/Info : Advanced Sub Station Alpha
Duration : 1 h 18 min
Bit rate : 150 b/s
Count of elements : 1334
Compression mode : Lossless
Stream size : 86.6 KiB (0%)
Title : Cartelli
Language : Italian
Default : Yes
Forced : No

Text #2

D : 6
Format : ASS
Codec ID : S_TEXT/ASS
Codec ID/Info : Advanced Sub Station Alpha
Duration : 2 s 500 ms
Bit rate : 166 b/s
Count of elements : 1
Compression mode : Lossless
Stream size : 52.0 Bytes (0%)
Title : Cartelli
Language : English
Default : No
Forced : No

Text #3

ID : 7
Format : ASS
Codec ID : S_TEXT/ASS
Codec ID/Info : Advanced Sub Station Alpha
Duration : 1 h 20 min
Bit rate : 255 b/s
Count of elements : 2072
Compression mode : Lossless
Stream size : 151 KiB (0%)
Title : Inglese
Language : English
Default : No
Forced : No

Menu

00:00:00.000 : en:00:00:00.000
00:02:52.381 : en:00:02:52.381
00:03:02.391 : en:00:03:02.391
00:05:46.221 : en:00:05:46.221
00:07:40.919 : en:00:07:40.919
00:10:49.649 : en:00:10:49.649
00:14:32.955 : en:00:14:32.955
00:17:49.068 : en:00:17:49.068
00:19:34.799 : en:00:19:34.799
00:26:30.339 : en:00:26:30.339
00:30:23.989 : en:00:30:23.989
00:34:56.678 : en:00:34:56.678
00:37:27.287 : en:00:37:27.287
00:39:13.309 : en:00:39:13.309
00:40:49.656 : en:00:40:49.656
00:45:38.611 : en:00:45:38.611
00:53:20.197 : en:00:53:20.197
00:57:43.001 : en:00:57:43.001
01:00:55.360 : en:01:00:55.360
01:03:31.433 : en:01:03:31.433
01:05:53.992 : en:01:05:53.992
01:07:54.237 : en:01:07:54.237
01:11:37.752 : en:01:11:37.752
01:15:41.996 : en:01:15:41.996
01:21:33.931 : en:01:21:33.931

Trackers

Refresh Leechers : Updated November 16, 2017

1. http://tracker.tntvillage.scambioetico.org:2710/announce

2. http://explodie.org:6969/announce

3. udp://eddie4.nl:6969/announce

4. udp://9.rarbg.com:2710/announce

5. udp://p4p.arenabg.ch:1337/announce

6. udp://tracker.mg64.net:2710/announce

7. udp://public.popcorn-tracker.org:6969

8. udp://inferno.demonoid.pw:3399/announce

9. udp://tracker.tiny-vps.com:6969/announce

10. udp://tracker.opentrackr.org:1337/announce

11. udp://tracker.coppersurfer.tk:6969/announce

12. udp://tracker.internetwarriors.net:1337/announce

13. udp://tracker.leechers-paradise.org:6969/announce

Comments

You must log in to add a comment.

Embed Code

Sharing Widget

Related torrents

FILENAME SIZE SEEDS PEERS ADDED UPD
[i] Card Captor Sakura S02e15-21[BDmux 1080p - H264 - Ita Jap Ac3 - Cartelli SoftSub Ita]
posted by MPT2 in Anime - Cartoons
6.15 GB 14 6 1 day 4 hours
[i] Card Captor Sakura S02e01-07[BDmux 1080p - H264 - Ita Jap Ac3 - Cartelli SoftSub Ita]
posted by MPT2 in Anime - Cartoons
5.93 GB 12 9 4 days 4 days
[i] Card Captor Sakura S02e08-14[BDmux 1080p - H264 - Ita Jap Ac3 - Cartelli SoftSub Ita]
posted by MPT2 in Anime - Cartoons
6.56 GB 11 9 4 days 3 days
[i] Card Captor Sakura - The Movie [BDmux 1080p - H264 - Ita Eng Jap Ac3 - Cartelli SoftSub Ita Eng]
posted by MPT2 in Anime - Cartoons
12.51 GB 7 3 1 week 3 days
[i] Card Captor Sakura S01e15-21[BDmux 1080p - H264 - Ita Jap Ac3 - Cartelli SoftSub Ita]
posted by MPT2 in Anime - Cartoons
7.22 GB 4 1 1 month 6 days
[i] Card Captor Sakura S01e08-14[BDmux 1080p - H264 - Ita Jap Ac3 - Cartelli SoftSub Ita]
posted by MPT2 in Anime - Cartoons
7.34 GB 4 1 1 month 2 weeks
[i] Card Captor Sakura S01e22-28[BDmux 1080p - H264 - Ita Jap Ac3 - Cartelli SoftSub Ita]
posted by MPT2 in Anime - Cartoons
6.74 GB 4 3 1 month 4 days
[i] Card Captor Sakura S01e01-07[BDmux 1080p - H264 - Ita Jap Ac3 - Cartelli SoftSub Ita]
posted by MPT2 in Anime - Cartoons
6.83 GB 3 2 1 month 3 weeks
[i] Card Captor Sakura S01eFix[BDmux 1080p - H264 - Ita Jap Ac3 - Cartelli SoftSub Ita]
posted by MPT2 in Anime - Cartoons
7.08 GB 3 5 1 week 6 days
[i] Card Captor Sakura S01e29-35[BDmux 1080p - H264 - Ita Jap Ac3 - Cartelli SoftSub Ita]
posted by MPT2 in Anime - Cartoons
6.58 GB 1 2 1 month 1 day

Top Anime ( auto generated report )

FILENAME SIZE SEEDS PEERS ADDED UPD
[i] Card Captor Sakura S02e15-21[BDmux 1080p - H264 - Ita Jap Ac3 - Cartelli SoftSub Ita] 6.15 GB 14 6 1 day 4 hours
[i] Your Name 2016 ITA-ENG Bluray 1080p Bymonello78 mkv 8.64 GB 15 54 4 days 3 days
[i] Card Captor Sakura S02e01-07[BDmux 1080p - H264 - Ita Jap Ac3 - Cartelli SoftSub Ita] 5.93 GB 12 9 4 days 4 days
[i] Card Captor Sakura S02e08-14[BDmux 1080p - H264 - Ita Jap Ac3 - Cartelli SoftSub Ita] 6.56 GB 11 9 4 days 3 days