Brain on Fire 2016 1080p WEB-DL DD5 1 H264-FGT

Posted by Lokioddin •2253 on June 5, 2017 in Movies » Drama , verified torrent

Size: 3.09 GB , Seeds: 17 , Peers: 3 ( Updated June 9, 2018 - Refresh )

* Download via Magnet Link , * To download files you need a Bittorrent Client , * How to download torrents from Bit Torrent Scene?

Scrape History ( seeds + peers )

Internal Files

Brain.on.Fire.2016.1080p.WEB-DL.DD5.1.H264-FGT
Brain.on.Fire.2016.1080p.WEB-DL.DD5.1.H264-FGT.mkv   3.09 GB
Brain.on.Fire.2016.1080p.WEB-DL.DD5.1.H264-FGT.nfo   3.75 KB
RARBG.txt   31 Byte

Hash Code

a7f479c4d72b2b3399b82ee5ea9cc5dcd5294f3a

Description

Brain.on.Fire.2016.1080p.WEB-DL.DD5.1.H264-FGT


SCREENSHOT

SCREENSHOT SCREENSHOT SCREENSHOT SCREENSHOT


http://imdb.com/title/tt3704700/

Video
ID : 1
Format : AVC
Format/Info : Advanced Video Codec
Format profile : High@L4
Format settings, CABAC : Yes
Format settings, ReFrames : 5 frames
Codec ID : V_MPEG4/ISO/AVC
Duration : 1h 28mn
Bit rate : 4 491 Kbps
Width : 1 920 pixels
Height : 802 pixels
Display aspect ratio : 2.40:1
Frame rate mode : Constant
Frame rate : 23.976 fps
Color space : YUV
Chroma subsampling : 4:2:0
Bit depth : 8 bits
Scan type : Progressive
Bits/(Pixel*Frame) : 0.122
Stream size : 2.79 GiB (90%)
Title : Brain.on.Fire.2016.1080p.WEB-DL.DD5.1.H264-FGT
Language : English


Audio
ID : 2
Format : AC-3
Format/Info : Audio Coding 3
Mode extension : CM (complete main)
Format settings, Endianness : Big
Codec ID : A_AC3
Duration : 1h 28mn
Bit rate mode : Constant
Bit rate : 384 Kbps
Channel(s) : 6 channels
Channel positions : Front: L C R, Side: L R, LFE
Sampling rate : 48.0 KHz
Frame rate : 31.250 fps (1536 spf)
Compression mode : Lossy
Stream size : 244 MiB (8%)
Title : Brain.on.Fire.2016.1080p.WEB-DL.DD5.1.H264-FGT
Language : English
Default : Yes
Forced : No

Trackers

Refresh Leechers : Updated June 9, 2018

1. http://tracker.trackerfix.com:80/announce

2. udp://9.rarbg.me:2710/announce

3. udp://9.rarbg.to:2710/announce

Comments

You must log in to add a comment.

Embed Code

Sharing Widget

Related torrents

FILENAME SIZE SEEDS PEERS ADDED UPD
[i] Brain on Fire (2016) 720p Web-DL x264 AAC - Downloadhub
posted by downloadhub in Movies - Drama
718.34 MB 1 0 1 year 1 week
[i] Brain.on.Fire.2016.HDRip.350MB 355.52 MB 0 0 1 year 1 week
[i] Brain on Fire 2016 720p WEBRIP AC3 X264 MutzNutz 2.4 GB 0 1 1 year 1 week
[i] Brain.on.Fire.2016.720p.BluRay.x264-x0r[N1C] 1.99 GB 0 0 4 months 3 weeks
[i] Brain.on.Fire.2016.720p.BluRay.x264-x0r 2.02 GB 0 0 4 months 3 weeks

Top Movies ( auto generated report )

FILENAME SIZE SEEDS PEERS ADDED UPD
[i] Rampage (2018) [WEBRip] [720p] [YTS AM] 924.3 MB 13992 12685 3 days 2 days
[i] Rampage (2018) [WEBRip] [1080p] [YTS AM] 1.73 GB 11810 9729 3 days 2 days
[i] Ready Player One (2018) [WEBRip] [1080p] [YTS AM] 2.24 GB 10162 5063 3 days 7 hours
[i] Ready Player One (2018) [WEBRip] [720p] [YTS AM] 1.16 GB 9167 6479 3 days 2 days
[i] Blockers (2018) [WEBRip] [720p] [YTS AM] 861.94 MB 3817 2346 1 day 1 hour
[i] Life of the Party (2018) [WEBRip] [720p] [YTS AM] 886.77 MB 3245 2104 3 days 2 days
[i] Isle of Dogs (2018) [WEBRip] [1080p] [YTS AM] 1.55 GB 2561 854 1 day 1 hour
[i] Blockers (2018) [WEBRip] [1080p] [YTS AM] 1.62 GB 2549 1065 1 day 1 hour
[i] The Death of Superman (2018) [WEBRip] [720p] [YTS AM] 690.36 MB 2300 1288 3 days 2 days
[i] Beirut (2018) [WEBRip] [720p] [YTS AM] 929.6 MB 2164 1197 4 days 4 days