Black Panther 2018 NEW PROPER HD-TS X264 MP3 128Kbps LLG

Posted by LifeLongg •968 on April 16, 2018 in Movies » Action , verified torrent

Size: 1.17 GB , Seeds: 6 , Peers: 3 ( Updated June 19, 2018 - Refresh )

* Download via Magnet Link , * To download files you need a Bittorrent Client , * How to download torrents from Bit Torrent Scene?

Scrape History ( seeds + peers )

Internal Files

Black.Panther.2018.NEW.PROPER.HD-TS.X264.MP3.128Kbps.LLG
Sample.ts   14.36 MB
Black.Panther.2018.NEW.PROPER.HD-TS.X264.MP3.128Kbps.LLG.mp4   1.16 GB

Hash Code

3f6710dc471efe64c4c6f60efc5362c62cdf6072

Description

SCREENSHOT

SCREENSHOT

******************************Thumbnail:**********************

SCREENSHOT

******************************Screenshots:********************

Screenshot 1

Screenshot 2

Screenshot 3

Screenshot 4

Screenshot 5

Screenshot 6

Screenshot 7

Screenshot 8

Screenshot 9

Screenshot 0

**************************************************************

Complete name : Black.Panther.2018.NEW.PROPER.HD-TS.X264.MP3.128Kbps.LLG.mp4
Format : MPEG-4
Format profile : Base Media
Codec ID : isom (isom/iso2/avc1/mp41)
File size : 1.16 GiB
Duration : 2 h 4 min
Overall bit rate : 1 332 kb/s
Writing application : Lavf57.56.101

Video
ID : 1
Format : AVC
Format/Info : Advanced Video Codec
Format profile : High@L3
Format settings : CABAC / 4 Ref Frames
Format settings, CABAC : Yes
Format settings, RefFrames : 4 frames
Codec ID : avc1
Codec ID/Info : Advanced Video Coding
Duration : 2 h 4 min
Bit rate : 1 200 kb/s
Width : 720 pixels
Height : 320 pixels
Display aspect ratio : 2.25:1
Frame rate mode : Constant
Frame rate : 23.976 (23976/1000) FPS
Color space : YUV
Chroma subsampling : 4:2:0
Bit depth : 8 bits
Scan type : Progressive
Bits/(Pixel*Frame) : 0.217
Stream size : 1.04 GiB (90%)


Audio
ID : 2
Format : MPEG Audio
Format version : Version 1
Format profile : Layer 3
Format settings : Joint stereo / MS Stereo
Codec ID : mp4a-6B
Duration : 2 h 4 min
Bit rate mode : Constant
Bit rate : 128 kb/s
Channel(s) : 2 channels
Sampling rate : 44.1 kHz
Compression mode : Lossy
Stream size : 114 MiB (10%)
Writing library : LAME3.99.5
Default : Yes
Alternate group : 1

Trackers

Refresh Leechers : Updated June 19, 2018

1. udp://tracker.openbittorrent.com:80/announce

2. udp://tracker.opentrackr.org:1337/announce

3. UDP://TRACKER.LEECHERS-PARADISE.ORG:6969/ANNOUNCE

Comments

You must log in to add a comment.

Embed Code

Sharing Widget

Related torrents

FILENAME SIZE SEEDS PEERS ADDED UPD
[i] Black Panther (2018) 720p HDTS 999MB - MkvCage 1011.3 MB 587 8 4 months 3 weeks
[i] Black Panther (2018) 720p HC HDTC 999MB - MkvCage 1002.3 MB 397 21 2 months 3 weeks
[i] Black Panther 2018 Bluray H264 Ita Eng Ac3 Subs RoomCrew mkv
posted by NickTnT in Movies - Action
1.58 GB 186 12 2 months 3 weeks
[i] Black Panther (2018) [BluRay] [3D] [YTS AM] 2.16 GB 169 32 1 month 1 week
[i] Black Panther 2018 iTA-ENG Bluray 1080p x264-CYBER mkv
posted by NickTnT in Movies - Action
8.87 GB 168 42 2 months 3 weeks
[i] Black Panther 2018 NEW HD-TS (DvdScr) Hindi Dubbed x264 [ KatmovieHD Exclusive ] [Best Print] 1017.3 MB 159 40 4 months 1 month
[i] Black Panther 2018 BRRip XViD AC3-ETRG
posted by juggs in Movies - Action
1.43 GB 115 52 2 months 1 week
[i] Black Panther 2018 TSHQ Latino [ZonaTorrent2 Com] avi
posted by Megacine in Movies - Sci-fi
2.42 GB 102 6 4 months 1 month
[i] Black Panther 2018 720P New HDTS-X264-MP3-Zi$t 1.68 GB 100 22 4 months 1 month
[i] downloadhub in Black Panther (2018) 720p BluRay x264 [Dual-Audio][Hindi 5 1 - English 5 1] ESubs - Downloadhub
posted by downloadhub in Movies - Action
1.29 GB 98 15 1 month 2 days

Top Movies ( auto generated report )

FILENAME SIZE SEEDS PEERS ADDED UPD
[i] Traffik (2018) [BluRay] [720p] [YTS AM] 820.11 MB 3689 2099 4 days 3 days
[i] 5th Passenger (2018) [WEBRip] [720p] [YTS AM] 770.87 MB 3061 1530 4 days 3 days
[i] 5th Passenger (2018) [WEBRip] [1080p] [YTS AM] 1.44 GB 2701 888 4 days 3 days
[i] Bilal A New Breed of Hero (2015) [WEBRip] [720p] [YTS AM] 940.45 MB 2114 832 4 days 3 days
[i] Traffik (2018) [BluRay] [1080p] [YTS AM] 1.55 GB 2032 850 4 days 3 days
[i] Bilal A New Breed of Hero (2015) [WEBRip] [1080p] [YTS AM] 1.76 GB 1482 403 4 days 1 day
[i] White Fang (2018) [WEBRip] [720p] [YTS AM] 744.41 MB 1446 483 4 days 3 days
[i] Incredibles 2 2018 HDTC XViD AC3-ETRG 1.31 GB 1317 1064 2 days 1 day
[i] The Endless (2017) [BluRay] [720p] [YTS AM] 964.73 MB 1203 447 4 days 3 days
[i] 211 (2018) [BluRay] [720p] [YTS AM] 753.25 MB 1022 408 4 days 3 days