Annihilation.2018.WEBRip.x264-FGT

Posted on March 12, 2018 in Movies » Misc , verified torrent

Size: 1.1 GB , Seeds: 84 , Peers: 10 ( Updated June 19, 2018 - Refresh )

* Download via Magnet Link , * To download files you need a Bittorrent Client , * How to download torrents from Bit Torrent Scene?

Scrape History ( seeds + peers )

Internal Files

Annihilation.2018.WEBRip.x264-FGT
Annihilation.2018.WEBRip.x264-FGT.mp4   1.1 GB
RARBG.txt   31 Byte
Arabic.srt   79.31 KB
Chinese-Simplified.srt   59.66 KB
Chinese-Traditional.srt   58.27 KB
Danish.srt   57 KB
Dutch.srt   52.12 KB
English-SDH.srt   75.11 KB
English.srt   63.68 KB
Finnish.srt   53.99 KB
French.srt   58.46 KB
German.srt   60.62 KB
Greek.srt   79.46 KB
Hebrew.srt   73.09 KB
Hindi.srt   99.65 KB
Italian.srt   57.43 KB
Japanese.srt   58.72 KB
Korean.srt   64.88 KB
Norwegian-Bokmal.srt   58.82 KB
Polish.srt   59.37 KB
Portuguese-Brazilian.srt   59.8 KB
Portuguese.srt   59.33 KB
Romanian.srt   60.26 KB
Spanish-European.srt   58.29 KB
Spanish.srt   59.06 KB
Swedish.srt   58.03 KB
Thai.srt   98.14 KB
Turkish.srt   60.63 KB

Hash Code

ecd8b00b664056ad6a3f73a552988a1c466248cd

Description

SCREENSHOT

A biologist's husband disappears. She puts her name forward for an expedition into an environmental disaster zone| but does not find what she's expecting. The expedition team is made up of the biologist| an anthropologist| a psychologist| a surveyor| and a linguist.


IMDB Rating: 7.8/10 from 14218 users Updated : 2018-03-12

Rotten Rating: 7.6/10

RottenTomatoes: fresh! 87% audience liked it! 66%

Genres: Adventure , Drama , Fantasy , Horror , Mystery , Sci-Fi , Thriller

Actors: Natalie Portman , Jennifer Jason Leigh , Tessa Thompson , Benedict Wong , Sonoya Mizuno , David Gyasi , Oscar Isaac , John Schwab , Gina Rodriguez , Tuva Novotny , Sammy Hayman , Josh Danford , Kristen McGarrity

Director: Alex Garland


Video

ID : 1

Format : AVC

Format/Info : Advanced Video Codec

Format profile : [email protected]
Format settings : CABAC / 5 Ref Frames

Format settings, CABAC : Yes

Format settings, ReFrames : 5 frames

Codec ID : avc1

Codec ID/Info : Advanced Video Coding

Duration : 1 h 55 min

Bit rate : 1 100 kb/s

Width : 720 pixels

Height : 304 pixels

Display aspect ratio : 2.40:1

Original display aspect ratio : 2.40:1

Frame rate mode : Constant

Frame rate : 23.976 (24000/1001) FPS

Color space : YUV

Chroma subsampling : 4:2:0

Bit depth : 8 bits

Scan type : Progressive

Bits/(Pixel*Frame) : 0.210

Stream size : 910 MiB (81%)

Title : Annihilation.2018.WEBRip.x264-FGT

Writing library : x264 core 148 r2795M aaa9aa8

Encoding settings : cabac=1 / ref=5 / deblock=1:-1:-1 / analyse=0x3:0x113 / me=umh / subme=9 / psy=1 / psy_rd=1.00:0.15 / mixed_ref=1 / me_range=16 / chroma_me=1 / trellis=2 / 8x8dct=1 / cqm=0 / deadzone=21,11 / fast_pskip=1 / chroma_qp_offset=-3 / threads=24 / lookahead_threads=2 / sliced_threads=0 / nr=0 / decimate=1 / interlaced=0 / bluray_compat=0 / constrained_intra=0 / bframes=3 / b_pyramid=2 / b_adapt=2 / b_bias=0 / direct=3 / weightb=1 / open_gop=0 / weightp=2 / keyint=250 / keyint_min=23 / scenecut=40 / intra_refresh=0 / rc_lookahead=50 / rc=abr / mbtree=1 / bitrate=1100 / ratetol=1.0 / qcomp=0.60 / qpmin=0 / qpmax=69 / qpstep=4 / ip_ratio=1.40 / aq=1:1.00


Audio

ID : 2

Format : AAC

Format/Info : Advanced Audio Codec

Format profile : LC

Codec ID : mp4a-40-2

Duration : 1 h 55 min

Duration_LastFrame : -11 ms

Bit rate mode : Constant

Bit rate : 256 kb/s

Channel(s) : 2 channels

Channel positions : Front: L R

Sampling rate : 48.0 kHz

Frame rate : 46.875 FPS (1024 SPF)

Compression mode : Lossy

Stream size : 211 MiB (19%)

Title : Annihilation.2018.WEBRip.x264-FGT

Language : English

Default : Yes

Alternate group : 1



SCREENSHOT
SCREENSHOT
SCREENSHOT

Torrent location

https://www.1337x.to/torrent/2856153/Annihilation-2018-WEBRip-x264-FGT/

Trackers

Refresh Leechers : Updated June 19, 2018

1. http://bigfoot1942.sektori.org:6969/announce

2. http://tracker2.wasabii.com.tw:6969/announce

3. http://tracker.opentrackr.org/announce

4. http://announce.torrentsmd.com:6969/announce

5. http://tracker.trackerfix.com/announce

6. http://tracker.opentrackr.org/announce

7. udp://explodie.org:6969/announce

8. udp://mgtracker.org:6969/announce

9. udp://asnet.pw:2710/announce

10. udp://tracker.mgtracker.org:2710/announce

11. udp://tracker4.piratux.com:6969/announce

12. udp://tracker.trackerfix.com:80/announce

13. udp://tracker.pomf.se:80/announce

14. udp://tracker.x4w.co:6969/announce

15. udp://castradio.net:6969/announce

16. udp://ipv4.tracker.harry.lu:80/announce

17. udp://tracker.mg64.net:6881/announce

18. udp://tracker.sktorrent.net:6969/announce

19. udp://tracker.blackunicorn.xyz:6969/announce

20. udp://tracker.internetwarriors.net:1337/announce

21. udp://public.popcorn-tracker.org:6969/announce

22. udp://glotorrents.pw:6969/announce

23. udp://tracker.vanitycore.co:6969/announce

24. udp://tracker.trackerfix.com:80/announce

25. udp://p4p.arenabg.ch:1337/announce

26. udp://9.rarbg.me:2710/announce

27. udp://tracker.zer0day.to:1337/announce

28. udp://tracker.opentrackr.org:1337/announce

29. udp://tracker.pirateparty.gr:6969/announce

30. udp://9.rarbg.to:2710/announce

31. udp://eddie4.nl:6969/announce

32. udp://tracker.coppersurfer.tk:6969/announce

33. udp://tracker.leechers-paradise.org:6969/announce

34. http://tracker.trackerfix.com/announce

35. udp://9.rarbg.to:2710/announce

36. udp://9.rarbg.me:2710/announce

Comments

You must log in to add a comment.

Embed Code

Sharing Widget

Related torrents

FILENAME SIZE SEEDS PEERS ADDED UPD
[i] downloadhub in Annihilation (2018) 720p WEBRip x264 AAC MSubs - Downloadhub
posted by downloadhub in Movies - Adventure
908.16 MB 8 4 3 months 2 days

Top Movies ( auto generated report )

FILENAME SIZE SEEDS PEERS ADDED UPD
[i] Rampage (2018) [WEBRip] [720p] [YTS AM] 924.3 MB 13992 12685 2 days 2 days
[i] Rampage (2018) [WEBRip] [1080p] [YTS AM] 1.73 GB 11810 9729 2 days 2 days
[i] Ready Player One (2018) [WEBRip] [1080p] [YTS AM] 2.24 GB 10162 5063 2 days 5 hours
[i] Ready Player One (2018) [WEBRip] [720p] [YTS AM] 1.16 GB 9167 6479 2 days 2 days
[i] Escape Plan 2 Hades (2018) [BluRay] [720p] [YTS AM] 821.12 MB 6877 4793 4 days 3 days
[i] Escape Plan 2 Hades (2018) [BluRay] [1080p] [YTS AM] 1.52 GB 4347 2178 4 days 3 days
[i] Blockers (2018) [WEBRip] [720p] [YTS AM] 861.94 MB 4304 4432 22 hours 20 hours
[i] Life of the Party (2018) [WEBRip] [720p] [YTS AM] 886.77 MB 3245 2104 2 days 2 days
[i] Blockers (2018) [WEBRip] [1080p] [YTS AM] 1.62 GB 2958 2345 22 hours 20 hours
[i] The Death of Superman (2018) [WEBRip] [720p] [YTS AM] 690.36 MB 2300 1288 2 days 2 days