American Made 2017 720p HDRip x264 KORSUB

Posted by moviefreak •1842 on October 13, 2017 in Movies » Action , verified torrent

Size: 1.04 GB , Seeds: 5 , Peers: 2 ( Updated March 31, 2018 - Refresh )

* Download via Magnet Link , * To download files you need a Bittorrent Client , * How to download torrents from Bit Torrent Scene?

Scrape History ( seeds + peers )

Internal Files

American Made 2017 720p HDRip x264 KORSUB
American Made 2017 720p HDRip x264 KORSUB.mkv   1.04 GB

Hash Code

e6d5d4762a926f83682f378cadbbc40fcd7cbafe

Description

SCREENSHOT

General
Format : Matroska
Format version : Version 4 / Version 2
File size : 1.04 GiB
Duration : 1 h 53 min
Overall bit rate : 1 315 kb/s

Video
ID : 1
Format : AVC
Format/Info : Advanced Video Codec
Format profile : High@L3.1
Format settings : CABAC / 4 Ref Frames
Format settings, CABAC : Yes
Format settings, RefFrames : 4 frames
Codec ID : V_MPEG4/ISO/AVC
Duration : 1 h 53 min
Bit rate : 1 200 kb/s
Width : 1 280 pixels
Height : 688 pixels
Display aspect ratio : 1.85:1
Frame rate mode : Constant
Frame rate : 23.976 (23976/1000) FPS
Color space : YUV
Chroma subsampling : 4:2:0
Bit depth : 8 bits
Scan type : Progressive
Bits/(Pixel*Frame) : 0.057
Stream size : 963 MiB (90%)
Writing library : x264 core 148 r2643 5c65704
Default : Yes
Forced : No

Audio
ID : 2
Format : AAC
Format/Info : Advanced Audio Codec
Format profile : LC
Codec ID : A_AAC-2
Duration : 1 h 53 min
Bit rate : 128 kb/s
Channel(s) : 2 channels
Channel positions : Front: L R
Sampling rate : 44.1 kHz
Frame rate : 43.066 FPS (1024 SPF)
Compression mode : Lossy
Stream size : 104 MiB (10%)
Language : English
Default : Yes
Forced : No


SCREENSHOT
SCREENSHOT
SCREENSHOT
SCREENSHOT

Trackers

Refresh Leechers : Updated March 31, 2018

1. http://ipv4.tracker.harry.lu/announce

2. http://ipv4.tracker.harry.lu:80/announce

3. udp://tracker.pirateparty.gr:6969/announce

4. http://tracker.devil-torrents.pl:80/announce

5. http://tracker.devil-torrents.pl/announce

6. http://open.kickasstracker.com/announce

7. https://open.kickasstracker.com:443/announce

8. udp://p4p.arenabg.com:1337/announce

9. udp://9.rarbg.me:2770/announce

10. udp://9.rarbg.com:2740/announce

11. udp://9.rarbg.to:2750/announce

12. udp://tracker.coppersurfer.tk:6969/announce

13. udp://tracker.leechers-paradise.org:6969/announce

14. udp://tracker.zer0day.to:1337/announce

15. http://tracker.devil-torrents.pl/announce

Comments

You must log in to add a comment.

Embed Code

Sharing Widget

Related torrents

FILENAME SIZE SEEDS PEERS ADDED UPD
[i] American Made (2017) [720p] [YTS AG] 841.9 MB 750 57 7 months 1 month
[i] American Made 2017 720p HC HDRip x264-M2Tv
posted by Lokioddin in Movies - Action
1 GB 14 6 9 months 3 months
[i] American Made 2017 720p BRRip x264 AAC-N O K
posted by juggs in Movies - Action
1.02 GB 11 3 7 months 1 month
[i] downloadhub in American Made (2017) 720p Web-DL x264 AAC ESubs - Downloadhub
posted by downloadhub in Movies - Action
931.24 MB 8 3 8 months 2 months
[i] American Made 2017 720p HC HDRip XviD With Sample
posted by Kingofall in Movies - Comedy
787.72 MB 4 3 9 months 3 months
[i] American Made 2017 720p BluRay x264-NeZu
posted by NeZu2k16 in Movies - Action
1.09 GB 4 5 7 months 1 month
[i] American.Made.2017.720p.HC.HDRip.X264.AC3-EVO 2.51 GB 3 3 9 months 3 months
[i] American Made 2017 720p HC HDRip X264 AC3-EVO
posted by hotpena in Movies - Action
2.51 GB 3 3 9 months 3 months

Top Movies ( auto generated report )

FILENAME SIZE SEEDS PEERS ADDED UPD
[i] Tango One (2018) [BluRay] [720p] [YTS AM] 967.28 MB 1073 689 2 days 1 day
[i] Jurassic World Fallen Kingdom 2018 NEW HD-TS XViD AC3 ETRG 1.35 GB 1065 832 2 days 1 day
[i] downloadhub in Raazi (2018) Hindi 720p HDRip x264 AAC ESubs - Downloadhub 1.05 GB 936 682 4 days 3 days
[i] Sara's Notebook (2018) [BluRay] [720p] [YTS AM] 996.61 MB 772 332 2 days 1 day
[i] The Devil's Doorway (2018) [WEBRip] [720p] [YTS AM] 638.65 MB 701 200 2 days 1 day
[i] Hotel Transylvania 3 Summer Vacation 2018 720p HDCAM X264-24HD [MOVCR] 770.09 MB 694 237 4 days 3 days
[i] The Honey Killer (2018) [WEBRip] [720p] [YTS AM] 680.9 MB 676 167 2 days 1 day
[i] Tango One (2018) [BluRay] [1080p] [YTS AM] 1.81 GB 558 234 2 days 1 day
[i] Sara's Notebook (2018) [BluRay] [1080p] [YTS AM] 1.86 GB 530 191 2 days 1 day
[i] Billionaire Boys Club 2018 HDRip XViD-ETRG 708.01 MB 509 348 3 days 2 days