Your IP Address is . Location is Your ISP and Government can track your torrent activity! Hide your IP with a VPN!

American Made 2017 720p HDRip x264 KORSUB

DOWNLOAD TORRENT DOWNLOAD DOWNLOAD ANONYMOUS

Posted by moviefreak •552 on October 13, 2017 in Movies » Action , verified torrent

Size: 1.04 GB , Seeds: 8 , Peers: 3 ( Updated December 16, 2017 - Refresh )

* Download via Magnet Link , * To download files you need a Bittorrent Client , * How to download torrents from Bit Torrent Scene?

Scrape History ( seeds + peers )

Internal Files

American Made 2017 720p HDRip x264 KORSUB
American Made 2017 720p HDRip x264 KORSUB.mkv   1.04 GB

Hash Code

e6d5d4762a926f83682f378cadbbc40fcd7cbafe

Description

SCREENSHOT

General
Format : Matroska
Format version : Version 4 / Version 2
File size : 1.04 GiB
Duration : 1 h 53 min
Overall bit rate : 1 315 kb/s

Video
ID : 1
Format : AVC
Format/Info : Advanced Video Codec
Format profile : High@L3.1
Format settings : CABAC / 4 Ref Frames
Format settings, CABAC : Yes
Format settings, RefFrames : 4 frames
Codec ID : V_MPEG4/ISO/AVC
Duration : 1 h 53 min
Bit rate : 1 200 kb/s
Width : 1 280 pixels
Height : 688 pixels
Display aspect ratio : 1.85:1
Frame rate mode : Constant
Frame rate : 23.976 (23976/1000) FPS
Color space : YUV
Chroma subsampling : 4:2:0
Bit depth : 8 bits
Scan type : Progressive
Bits/(Pixel*Frame) : 0.057
Stream size : 963 MiB (90%)
Writing library : x264 core 148 r2643 5c65704
Default : Yes
Forced : No

Audio
ID : 2
Format : AAC
Format/Info : Advanced Audio Codec
Format profile : LC
Codec ID : A_AAC-2
Duration : 1 h 53 min
Bit rate : 128 kb/s
Channel(s) : 2 channels
Channel positions : Front: L R
Sampling rate : 44.1 kHz
Frame rate : 43.066 FPS (1024 SPF)
Compression mode : Lossy
Stream size : 104 MiB (10%)
Language : English
Default : Yes
Forced : No


SCREENSHOT
SCREENSHOT
SCREENSHOT
SCREENSHOT

Trackers

Refresh Leechers : Updated December 16, 2017

1. http://ipv4.tracker.harry.lu/announce

2. http://ipv4.tracker.harry.lu:80/announce

3. udp://tracker.pirateparty.gr:6969/announce

4. http://tracker.devil-torrents.pl:80/announce

5. http://tracker.devil-torrents.pl/announce

6. http://open.kickasstracker.com/announce

7. https://open.kickasstracker.com:443/announce

8. udp://p4p.arenabg.com:1337/announce

9. udp://9.rarbg.me:2770/announce

10. udp://9.rarbg.com:2740/announce

11. udp://9.rarbg.to:2750/announce

12. udp://tracker.coppersurfer.tk:6969/announce

13. udp://tracker.leechers-paradise.org:6969/announce

14. udp://tracker.zer0day.to:1337/announce

15. http://tracker.devil-torrents.pl/announce

Comments

You must log in to add a comment.

Embed Code

Sharing Widget

Related torrents

FILENAME SIZE SEEDS PEERS ADDED UPD
[i] American Made (2017) [720p] [YTS AG] 841.9 MB 5344 1606 1 week 6 days
[i] American Made 2017 720p HC HDRip x264-M2Tv
posted by Lokioddin in Movies - Action
1 GB 66 11 2 months 4 weeks
[i] American Made 2017 720p BRRip x264 AAC-N O K
posted by juggs in Movies - Action
1.02 GB 22 3 1 week 1 week
[i] American Made 2017 720p BluRay x264-NeZu
posted by NeZu2k16 in Movies - Action
1.09 GB 19 8 1 week 6 days
[i] downloadhub in American Made (2017) 720p Web-DL x264 AAC ESubs - Downloadhub
posted by downloadhub in Movies - Action
931.24 MB 9 4 3 weeks 1 week
[i] American Made 2017 720p HC HDRip X264 AC3-EVO
posted by hotpena in Movies - Action
2.51 GB 4 3 2 months 2 days
[i] American.Made.2017.720p.HC.HDRip.X264.AC3-EVO 2.51 GB 3 3 2 months 2 days

Top Movies ( auto generated report )

FILENAME SIZE SEEDS PEERS ADDED UPD
[i] The Mountain Between Us (2017) [720p] [YTS AG] 816.25 MB 5646 2920 4 days 1 day
[i] l-experience-interdite-flatliners-french-dvdrip-2017.torrent 700.65 MB 5171 851 2 days 1 day
[i] The Mountain Between Us (2017) [1080p] [YTS AG] 1.7 GB 3703 1416 4 days 23 hours
[i] Flatliners (2017) [720p] [YTS AG] 807.91 MB 2908 1454 4 days 12 hours
[i] Flatliners (2017) [1080p] [YTS AG] 1.67 GB 1938 794 4 days 16 hours
[i] Beyond.Skyline.2017.WEB-DL.x264-FGT [rarbg] 929.15 MB 1416 442 2 days 14 hours
[i] The.Snowman.2017.HC.WEBRip.x264-STUTTERSHIT[rarbg] 1.02 GB 623 128 6 days 11 hours
[i] M F A (2017) [720p] [YTS AG] 672.56 MB 1648 773 1 day 1 day
[i] Stronger (2017) [720p] [YTS AG] 865.1 MB 1528 329 1 week 1 day
[i] Victoria & Abdul (2017) [720p] [YTS AG] 812.01 MB 1305 334 1 week 1 day