All I Want for Christmas Is You 2017 720p WEB-DL x264

Posted by moviefreak •1676 on November 14, 2017 in Movies » Animation , verified torrent

Size: 1.03 GB , Seeds: 2 , Peers: 2 ( Updated May 2, 2018 - Refresh )

* Download via Magnet Link , * To download files you need a Bittorrent Client , * How to download torrents from Bit Torrent Scene?

Scrape History ( seeds + peers )

Internal Files

All I Want for Christmas Is You 2017 720p WEB-DL x264
All I Want for Christmas Is You 2017 720p WEB-DL x264.mkv   1.03 GB

Hash Code

182e7d52bcf70fb6ca68c6ff8ce374fe79dc1936

Description


SCREENSHOT

General
Format : Matroska
Format version : Version 4 / Version 2
File size : 1.03 GiB
Duration : 1 h 30 min
Overall bit rate : 1 621 kb/s

Video
ID : 1
Format : AVC
Format/Info : Advanced Video Codec
Format profile : High@L3.1
Format settings : CABAC / 4 Ref Frames
Format settings, CABAC : Yes
Format settings, RefFrames : 4 frames
Codec ID : V_MPEG4/ISO/AVC
Duration : 1 h 30 min
Bit rate : 1 500 kb/s
Width : 1 280 pixels
Height : 716 pixels
Display aspect ratio : 16:9
Frame rate mode : Constant
Frame rate : 23.976 (23976/1000) FPS
Color space : YUV
Chroma subsampling : 4:2:0
Bit depth : 8 bits
Scan type : Progressive
Bits/(Pixel*Frame) : 0.068
Stream size : 967 MiB (92%)
Writing library : x264 core 148 r2643 5c65704
Language : English
Default : Yes
Forced : No

Audio
ID : 2
Format : AAC
Format/Info : Advanced Audio Codec
Format profile : LC
Codec ID : A_AAC-2
Duration : 1 h 30 min
Bit rate : 128 kb/s
Channel(s) : 2 channels
Channel positions : Front: L R
Sampling rate : 44.1 kHz
Frame rate : 43.066 FPS (1024 SPF)
Compression mode : Lossy
Stream size : 83.0 MiB (8%)
Language : English
Default : Yes
Forced : No



SCREENSHOT
SCREENSHOT
SCREENSHOT
SCREENSHOT
SCREENSHOT
SCREENSHOT
SCREENSHOT

Trackers

Refresh Leechers : Updated May 2, 2018

1. http://ipv4.tracker.harry.lu/announce

2. http://ipv4.tracker.harry.lu:80/announce

3. udp://tracker.pirateparty.gr:6969/announce

4. udp://p4p.arenabg.com:1337/announce

5. udp://9.rarbg.me:2770/announce

6. udp://9.rarbg.com:2710/announce

7. udp://9.rarbg.to:2720/announce

8. http://tracker.devil-torrents.pl:80/announce

9. http://tracker.devil-torrents.pl/announce

10. http://open.kickasstracker.com/announce

11. https://open.kickasstracker.com:443/announce

12. udp://tracker.coppersurfer.tk:6969/announce

13. udp://tracker.leechers-paradise.org:6969/announce

14. udp://tracker.zer0day.to:1337/announce

15. http://tracker.devil-torrents.pl/announce

Comments

You must log in to add a comment.

Embed Code

Sharing Widget

Related torrents

FILENAME SIZE SEEDS PEERS ADDED UPD
[i] Tushy - Anissa Kate - Getting What I Want With Anal
posted by sanyika in Porn - Movies
352.31 MB 106 15 6 months 3 weeks
[i] Photoshop How Do I Do - The Quickest Ways to Do the Things You Want to Do, Right Now 40.8 MB 39 1 3 months 1 month
[i] How Do I Do That in Photoshop The Quickest Ways to Do the Things You Want to Do, Right Now! Scott Kelby, the world s 1 best-selling photography technique books 38.83 MB 34 2 8 months 2 months
[i] I Want My Sister 4[DigitalSin]Split Scenes
posted by nsanyi23 in Porn - Movies
863.66 MB 25 9 2 months 4 weeks
[i] Body Language Secrets to Win More Negotiations - How to Read Any Opponent and Get What You Want 1.57 MB 25 1 1 month 2 weeks
[i] Just Fuck Me! - What Women Want Men to Know About Taking Control in the Bedroom (A Guide for Couples) 137.6 KB 24 1 4 months 1 month
[i] Sexual Intelligence - What We Really Want from Sex--and How to Get It 1.07 MB 24 0 1 month 3 weeks
[i] ポルノスターのオーディション She Want To Be A Pornstar [3D Hentai] WEB-720PX
posted by Bl4ckHaT7 in Anime - Hentai
116.11 MB 23 6 1 day 17 hours
[i] Just Fuck Me! - What Women Want Men to Know About Taking Control in the Bedroom (A Guide for Couples) - Revised Edition 137.6 KB 22 2 6 months 2 weeks
[i] Get Inside Her - Dirty Dating Tips & Secrets From A Woman On How To Attract, Seduce And Get Any Female You Want 844.8 KB 21 3 6 months 1 month

Top Movies ( auto generated report )

FILENAME SIZE SEEDS PEERS ADDED UPD
[i] Rampage (2018) [WEBRip] [720p] [YTS AM] 924.3 MB 13992 12685 3 days 2 days
[i] Rampage (2018) [WEBRip] [1080p] [YTS AM] 1.73 GB 11810 9729 3 days 2 days
[i] Ready Player One (2018) [WEBRip] [1080p] [YTS AM] 2.24 GB 10162 5063 3 days 17 hours
[i] Ready Player One (2018) [WEBRip] [720p] [YTS AM] 1.16 GB 9167 6479 3 days 2 days
[i] Blockers (2018) [WEBRip] [720p] [YTS AM] 861.94 MB 3817 2346 1 day 11 hours
[i] Life of the Party (2018) [WEBRip] [720p] [YTS AM] 886.77 MB 3245 2104 3 days 2 days
[i] Isle of Dogs (2018) [WEBRip] [1080p] [YTS AM] 1.55 GB 2561 854 1 day 11 hours
[i] Blockers (2018) [WEBRip] [1080p] [YTS AM] 1.62 GB 2549 1065 1 day 11 hours
[i] The Death of Superman (2018) [WEBRip] [720p] [YTS AM] 690.36 MB 2300 1288 3 days 2 days
[i] Beirut (2018) [WEBRip] [720p] [YTS AM] 929.6 MB 2164 1197 5 days 4 days