18+ Red Sparrow 2018 720p BluRay x264 Hindi Audio LLG

DOWNLOAD TORRENT DOWNLOAD DOWNLOAD ANONYMOUS

Posted by LifeLongg •694 on May 17, 2018 in Movies » Drama , verified torrent

Size: 1.26 GB , Seeds: 8 , Peers: 8 ( Updated May 23, 2018 - Refresh )

* Download via Magnet Link , * To download files you need a Bittorrent Client , * How to download torrents from Bit Torrent Scene?

Scrape History ( seeds + peers )

Internal Files

18+.Red.Sparrow.2018.720p.BluRay.x264.Hindi.Audio.LLG
Sample.mp4   14.16 MB
18+.Red.Sparrow.2018.720p.BluRay.x264.Hindi.Audio.LLG.mp4   1.24 GB

Hash Code

a02c03542c7598baea3d626727d3e2348b0585a0

Description

SCREENSHOT

******************************Thumbnail:**********************

SCREENSHOT

******************************Screenshots:********************

Screenshot 1

Screenshot 2

Screenshot 3

Screenshot 4

Screenshot 5

Screenshot 6

Screenshot 7

Screenshot 8

Screenshot 9

Screenshot 0

**************************************************************

Complete name : 18+.Red.Sparrow.2018.720p.BluRay.x264.Hindi.Audio.LLG.mp4
Format : MPEG-4
Format profile : Base Media
Codec ID : isom (isom/iso2/avc1/mp41)
File size : 1.24 GiB
Duration : 2 h 20 min
Overall bit rate : 1 267 kb/s
Writing application : Lavf57.56.101

Video
ID : 1
Format : AVC
Format/Info : Advanced Video Codec
Format profile : High@L3.1
Format settings : CABAC / 4 Ref Frames
Format settings, CABAC : Yes
Format settings, RefFrames : 4 frames
Codec ID : avc1
Codec ID/Info : Advanced Video Coding
Duration : 2 h 20 min
Bit rate : 1 200 kb/s
Width : 1 280 pixels
Height : 536 pixels
Display aspect ratio : 2.40:1
Frame rate mode : Constant
Frame rate : 23.976 (23976/1000) FPS
Color space : YUV
Chroma subsampling : 4:2:0
Bit depth : 8 bits
Scan type : Progressive
Bits/(Pixel*Frame) : 0.073
Stream size : 1.17 GiB (94%)

Audio
ID : 2
Format : AAC
Format/Info : Advanced Audio Codec
Format profile : LC
Codec ID : mp4a-40-2
Duration : 2 h 20 min
Bit rate mode : Constant
Bit rate : 64.4 kb/s
Channel(s) : 2 channels
Channel(s)_Original : 6 channels
Channel positions : Front: L C R, Side: L R, LFE
Sampling rate : 48.0 kHz
Frame rate : 46.875 FPS (1024 SPF)
Compression mode : Lossy
Stream size : 64.5 MiB (5%)
Language : Hindi
Default : Yes
Alternate group : 1
Menus : 3

Trackers

Refresh Leechers : Updated May 23, 2018

1. udp://tracker.openbittorrent.com:80/announce

2. udp://tracker.opentrackr.org:1337/announce

Comments

You must log in to add a comment.

Embed Code

Sharing Widget

Related torrents

FILENAME SIZE SEEDS PEERS ADDED UPD
[i] Red Sparrow (2018) [BluRay] [720p] [YTS AM] 1.17 GB 6682 2390 2 weeks 1 day
[i] Red Sparrow (2018) [BluRay] [1080p] [YTS AM] 2.24 GB 5013 1172 2 weeks 1 day
[i] Red.Sparrow.2018.HC.HDRip.XviD.AC3-EVO[EtMovies] 1.31 GB 2232 167 1 month 6 days
[i] Red Sparrow (2018) Jennifer Lawrence.720p.H264.italian.English.Ac3-5.1.sub.ita.eng.MIRCrew
posted by robbyrs3 in Movies - Thriller
2.73 GB 307 65 1 week 5 days
[i] downloadhub in Red Sparrow (2018) 720p BluRay x264 [Dual-Audio][Hindi 5 1 - English 5 1] ESubs - Downloadhub
posted by downloadhub in Movies - Drama
1.31 GB 225 118 1 week 6 days
[i] Red Sparrow 2018 DTS ITA ENG 1080p BluRay x264-BLUWORLD mkv
posted by SPEEDY4572 in Movies - Thriller
12.49 GB 143 69 1 week 5 days
[i] Red Sparrow 2018 Bluray H264 Ita Eng Ac3 5 1 Subs RoomCrew mkv
posted by NickTnT in Series - Misc
2.02 GB 94 12 1 week 5 days
[i] Red Sparrow 2018 iTA-ENG Bluray 1080p x264-CYBER mkv
posted by NickTnT in Movies - Thriller
10.16 GB 82 18 1 week 6 days
[i] Red.Sparrow.2018.720p.BluRay.x264-x0r[N1C] 2.95 GB 58 21 1 week 1 week
[i] Red.Sparrow.2018.BluRay.1080p.HEVC.Multi.AAC.5.1-DTOne 1.56 GB 56 54 4 days 3 days

Top Movies ( auto generated report )

FILENAME SIZE SEEDS PEERS ADDED UPD
[i] Death Wish (2018) [WEBRip] [720p] [YTS AM] 905.39 MB 4867 2979 2 days 1 day
[i] Death Wish (2018) [WEBRip] [1080p] [YTS AM] 1.7 GB 4055 2408 2 days 1 day
[i] Gringo (2018) [WEBRip] [720p] [YTS AM] 940.05 MB 2754 2010 2 days 1 day
[i] Black Water (2018) [WEBRip] [720p] [YTS AM] 897.63 MB 2635 1460 2 days 1 day
[i] The Strangers Prey at Night (2018) [WEBRip] [720p] [YTS AM] 724.75 MB 2024 1073 2 days 1 day
[i] Gringo (2018) [WEBRip] [1080p] [YTS AM] 1.77 GB 1990 898 2 days 1 day
[i] Black Water (2018) [WEBRip] [1080p] [YTS AM] 1.68 GB 1828 905 2 days 1 day
[i] Death Wish (2018) [BluRay] [720p] [YTS AM] 908.79 MB 1715 995 5 hours 3 hours
[i] How to Talk to Girls at Parties (2017) [WEBRip] [720p] [YTS AM] 869.28 MB 1574 800 2 days 1 day
[i] The Strangers Prey at Night (2018) [WEBRip] [1080p] [YTS AM] 1.37 GB 1529 695 2 days 1 day